<?xml version="1.0" standalone="no"?>
<!DOCTYPE svg PUBLIC "-//W3C//DTD SVG 1.1//EN" "http://www.w3.org/Graphics/SVG/1.1/DTD/svg11.dtd" >
<svg xmlns="http://www.w3.org/2000/svg">
<metadata>Designed by MingCute 2.84</metadata>
<defs>
<font id="MingCute" horiz-adv-x="1024">
<font-face units-per-em="1024" ascent="960" descent="-64" />
<missing-glyph horiz-adv-x="1024" />
<glyph unicode="&#x20;" horiz-adv-x="512" d="" />
<glyph unicode="&#xe900;" glyph-name="ABS_fill" d="M512 768c188.514 0 341.333-152.82 341.333-341.333s-152.819-341.333-341.333-341.333c-188.513 0-341.333 152.819-341.333 341.333s152.82 341.333 341.333 341.333zM469.333 512c-23.565 0-42.667-19.102-42.667-42.667h42.667v42.667zM426.667 298.667v85.333h42.667v-85.333c0-23.565 19.102-42.667 42.667-42.667h85.333c47.13 0 85.333 38.204 85.333 85.333v170.667c0 47.128-38.204 85.333-85.333 85.333h-128c-70.692 0-128-57.308-128-128v-170.667c0-23.565 19.103-42.667 42.667-42.667s42.667 19.102 42.667 42.667zM597.333 341.334h-42.667v42.667h42.667v-42.667zM597.333 469.334h-42.667v42.667h42.667v-42.667zM204.75 657.042c14.152 18.841 10.351 45.588-8.49 59.74s-45.588 10.351-59.74-8.49c-58.922-78.445-93.854-176.017-93.854-281.625s34.932-203.179 93.854-281.626c14.152-18.842 40.899-22.643 59.74-8.491s22.642 40.9 8.49 59.742c-48.204 64.175-76.75 143.881-76.75 230.374 0 86.496 28.547 166.201 76.75 230.375zM887.479 708.292c-14.153 18.841-40.9 22.642-59.738 8.49-18.842-14.152-22.643-40.899-8.491-59.74 48.201-64.175 76.749-143.88 76.749-230.375s-28.548-166.199-76.749-230.374c-14.153-18.842-10.351-45.589 8.491-59.742 18.837-14.153 45.585-10.351 59.738 8.491 58.923 78.447 93.854 176.017 93.854 281.626s-34.931 203.18-93.854 281.625z" />
<glyph unicode="&#xe901;" glyph-name="ABS_line" d="M512 768c188.514 0 341.333-152.82 341.333-341.333s-152.819-341.333-341.333-341.333c-188.513 0-341.333 152.819-341.333 341.333s152.82 341.333 341.333 341.333zM136.521 708.292c14.152 18.841 40.899 22.642 59.74 8.49s22.642-40.899 8.49-59.74c-48.204-64.175-76.75-143.88-76.75-230.375s28.547-166.199 76.75-230.374c14.152-18.842 10.351-45.589-8.49-59.742s-45.588-10.351-59.74 8.491c-58.922 78.447-93.854 176.017-93.854 281.626s34.932 203.18 93.854 281.625zM827.742 716.782c18.837 14.152 45.585 10.351 59.738-8.49 58.923-78.445 93.854-176.017 93.854-281.625s-34.931-203.179-93.854-281.626c-14.153-18.842-40.9-22.643-59.738-8.491-18.842 14.153-22.643 40.9-8.491 59.742 48.201 64.175 76.749 143.881 76.749 230.374 0 86.496-28.548 166.201-76.749 230.375-14.153 18.841-10.351 45.588 8.491 59.74zM512 682.667c-141.385 0-256-114.615-256-256s114.615-256 256-256c141.385 0 256 114.615 256 256s-114.615 256-256 256zM597.333 597.334c47.13 0 85.333-38.205 85.333-85.333v-170.667c0-47.13-38.204-85.333-85.333-85.333h-85.333c-23.565 0-42.667 19.102-42.667 42.667v85.333h-42.667v-85.333c0-23.565-19.102-42.667-42.667-42.667s-42.667 19.102-42.667 42.667v170.667c0 70.692 57.308 128 128 128h128zM597.333 384h-42.667v-42.667h42.667v42.667zM469.333 512c-21.882 0-39.915-16.47-42.38-37.691l-0.287-4.976h42.667v42.667zM597.333 512h-42.667v-42.667h42.667v42.667z" />
<glyph unicode="&#xe902;" glyph-name="add_circle_fill" d="M512 853.334c235.639 0 426.667-191.025 426.667-426.667 0-235.639-191.027-426.667-426.667-426.667-235.642 0-426.667 191.027-426.667 426.667 0 235.642 191.025 426.667 426.667 426.667zM512 640c-21.882 0-39.915-16.471-42.38-37.691l-0.287-4.976v-128h-128c-23.564 0-42.667-19.102-42.667-42.667 0-21.882 16.471-39.915 37.691-42.38l4.976-0.287h128v-128c0-23.565 19.102-42.667 42.667-42.667 21.882 0 39.915 16.47 42.38 37.691l0.287 4.976v128h128c23.565 0 42.667 19.102 42.667 42.667 0 21.882-16.47 39.915-37.691 42.38l-4.976 0.287h-128v128c0 23.564-19.102 42.667-42.667 42.667z" />
<glyph unicode="&#xe903;" glyph-name="add_circle_line" d="M512 853.334c235.639 0 426.667-191.025 426.667-426.667 0-235.639-191.027-426.667-426.667-426.667-235.642 0-426.667 191.027-426.667 426.667 0 235.642 191.025 426.667 426.667 426.667zM512 768c-188.513 0-341.333-152.82-341.333-341.333s152.82-341.333 341.333-341.333c188.514 0 341.333 152.819 341.333 341.333s-152.819 341.333-341.333 341.333zM512 640c23.565 0 42.667-19.102 42.667-42.667v-128h128c23.565 0 42.667-19.102 42.667-42.667s-19.102-42.667-42.667-42.667h-128v-128c0-23.565-19.102-42.667-42.667-42.667s-42.667 19.102-42.667 42.667v128h-128c-23.564 0-42.667 19.102-42.667 42.667s19.103 42.667 42.667 42.667h128v128c0 23.564 19.102 42.667 42.667 42.667z" />
<glyph unicode="&#xe904;" glyph-name="add_fill" d="M448 85.334c0-35.345 28.655-64 64-64s64 28.655 64 64v277.333h277.333c35.345 0 64 28.655 64 64s-28.655 64-64 64h-277.333v277.333c0 35.346-28.655 64-64 64s-64-28.654-64-64v-277.333h-277.333c-35.346 0-64-28.655-64-64s28.654-64 64-64h277.333v-277.333z" />
<glyph unicode="&#xe905;" glyph-name="add_line" d="M469.333 85.334c0-23.565 19.102-42.667 42.667-42.667s42.667 19.102 42.667 42.667v298.667h298.667c23.565 0 42.667 19.102 42.667 42.667s-19.102 42.667-42.667 42.667h-298.667v298.667c0 23.564-19.102 42.667-42.667 42.667s-42.667-19.103-42.667-42.667v-298.667h-298.667c-23.564 0-42.667-19.102-42.667-42.667s19.103-42.667 42.667-42.667h298.667v-298.667z" />
<glyph unicode="&#xe906;" glyph-name="aerial_lift_fill" d="M853.222 813.705c1.677-23.504-16.017-43.919-39.522-45.598l-259.038-18.503v-109.606h144.299c32.32 0 61.867-18.262 76.322-47.171l86.519-173.038c23.868-47.74 28.975-102.69 14.315-154.010l-58.257-203.891c-10.466-36.634-43.947-61.888-82.048-61.888h-447.633c-38.1 0-71.583 25.254-82.050 61.888l-58.254 203.891c-14.663 51.319-9.556 106.27 14.314 154.010l86.518 173.038c14.455 28.91 44.003 47.171 76.324 47.171h144.297v103.51l-252.96-18.068c-23.505-1.679-43.919 16.014-45.598 39.518s16.014 43.919 39.518 45.598l597.335 42.667c23.501 1.679 43.917-16.014 45.598-39.519zM325.032 554.665l-85.333-170.665h544.596l-85.333 170.665h-373.929z" />
<glyph unicode="&#xe907;" glyph-name="aerial_lift_line" d="M853.222 813.705c1.677-23.504-16.017-43.919-39.522-45.598l-259.038-18.503v-109.606h144.299c32.32 0 61.867-18.262 76.322-47.171l86.519-173.038c23.868-47.74 28.975-102.69 14.315-154.010l-58.257-203.891c-10.466-36.634-43.947-61.888-82.048-61.888h-447.633c-38.1 0-71.583 25.254-82.050 61.888l-58.254 203.891c-14.663 51.319-9.556 106.27 14.314 154.010l86.518 173.038c14.455 28.91 44.003 47.171 76.324 47.171h144.297v103.51l-252.96-18.068c-23.505-1.679-43.919 16.014-45.598 39.518s16.014 43.919 39.518 45.598l597.335 42.667c23.501 1.679 43.917-16.014 45.598-39.519zM511.966 554.665h-186.934l-85.333-170.665h544.596l-85.333 170.665h-186.935c0.009 0-0.009 0 0 0-0.009 0-0.051 0-0.060 0zM227.611 298.667c0.649-3.166 1.421-6.319 2.314-9.446l58.254-203.887h447.633l58.253 203.887c0.896 3.127 1.664 6.281 2.317 9.446h-568.771z" />
<glyph unicode="&#xe908;" glyph-name="aiming_2_fill" d="M512 853.334c21.882 0 39.915-16.471 42.38-37.691l0.287-4.976v-2.344c174.119-19.248 313.151-154.913 337.536-327.435l1.455-11.555h2.342c23.565 0 42.667-19.102 42.667-42.667 0-21.882-16.47-39.915-37.691-42.38l-4.976-0.287h-2.342c-19.25-174.119-154.916-313.151-327.436-337.536l-11.555-1.455v-2.342c0-23.565-19.102-42.667-42.667-42.667-21.882 0-39.915 16.47-42.38 37.691l-0.287 4.976v2.342c-174.12 19.25-313.152 154.916-337.535 327.436l-1.455 11.555h-2.344c-23.564 0-42.667 19.102-42.667 42.667 0 21.882 16.471 39.915 37.691 42.38l4.976 0.287h2.344c19.248 174.12 154.913 313.152 327.435 337.535l11.555 1.455v2.344c0 23.564 19.102 42.667 42.667 42.667zM512 640c-117.821 0-213.333-95.513-213.333-213.333s95.513-213.333 213.333-213.333c117.82 0 213.333 95.514 213.333 213.333s-95.514 213.333-213.333 213.333zM512 554.667c70.694 0 128-57.306 128-128s-57.306-128-128-128c-70.694 0-128 57.306-128 128s57.306 128 128 128z" />
<glyph unicode="&#xe909;" glyph-name="aiming_2_line" d="M512 853.334c23.565 0 42.667-19.103 42.667-42.667v-2.344c177.988-19.676 319.313-161.001 338.991-338.99h2.342c23.565 0 42.667-19.102 42.667-42.667s-19.102-42.667-42.667-42.667h-2.342c-19.678-177.988-161.003-319.313-338.991-338.991v-2.342c0-23.565-19.102-42.667-42.667-42.667s-42.667 19.102-42.667 42.667v2.342c-177.989 19.678-319.314 161.003-338.99 338.991h-2.344c-23.564 0-42.667 19.102-42.667 42.667s19.103 42.667 42.667 42.667h2.344c19.676 177.989 161.001 319.314 338.99 338.99v2.344c0 23.564 19.102 42.667 42.667 42.667zM512 725.334c-164.949 0-298.667-133.718-298.667-298.667s133.718-298.667 298.667-298.667c164.949 0 298.667 133.717 298.667 298.667s-133.717 298.667-298.667 298.667zM512 597.334c94.255 0 170.667-76.41 170.667-170.667 0-94.255-76.412-170.667-170.667-170.667-94.257 0-170.667 76.412-170.667 170.667 0 94.257 76.41 170.667 170.667 170.667zM512 512c-47.13 0-85.333-38.204-85.333-85.333s38.204-85.333 85.333-85.333c47.13 0 85.333 38.204 85.333 85.333s-38.204 85.333-85.333 85.333z" />
<glyph unicode="&#xe90a;" glyph-name="aiming_fill" d="M554.667 87.975v-45.308c0-23.565-19.102-42.667-42.667-42.667-21.882 0-39.915 16.47-42.38 37.691l-0.287 4.976v45.308c13.978-1.745 28.215-2.641 42.667-2.641 9.634 0 19.173 0.398 28.604 1.181l14.063 1.46zM554.667 765.36c154.398-19.253 276.774-141.627 296.026-296.026h-40.026c-23.565 0-42.667-19.102-42.667-42.667s19.102-42.667 42.667-42.667h40.026c-19.251-154.398-141.628-276.774-296.026-296.026v40.026c0 23.565-19.102 42.667-42.667 42.667s-42.667-19.102-42.667-42.667v-40.026c-154.399 19.251-276.773 141.628-296.026 296.026h40.026c23.564 0 42.667 19.102 42.667 42.667s-19.103 42.667-42.667 42.667h-40.026c-1.743-13.978-2.641-28.215-2.641-42.667s0.898-28.689 2.641-42.667h-45.307c-23.564 0-42.667 19.102-42.667 42.667s19.103 42.667 42.667 42.667h45.307c19.253 154.399 141.627 276.773 296.026 296.026v-40.026c0-23.564 19.102-42.667 42.667-42.667s42.667 19.103 42.667 42.667v40.026zM512 490.667c-35.345 0-64-28.655-64-64s28.655-64 64-64c35.345 0 64 28.655 64 64s-28.655 64-64 64zM896 469.334c23.565 0 42.667-19.102 42.667-42.667s-19.102-42.667-42.667-42.667h-45.308c1.745 13.978 2.641 28.215 2.641 42.667s-0.896 28.689-2.641 42.667h45.308zM512 853.334c23.565 0 42.667-19.103 42.667-42.667v-45.307c-13.978 1.743-28.215 2.641-42.667 2.641s-28.689-0.898-42.667-2.641v45.307c0 23.564 19.102 42.667 42.667 42.667z" />
<glyph unicode="&#xe90b;" glyph-name="aiming_line" d="M512 853.334c23.565 0 42.667-19.103 42.667-42.667v-2.344c177.988-19.676 319.313-161.001 338.991-338.99h2.342c23.565 0 42.667-19.102 42.667-42.667s-19.102-42.667-42.667-42.667h-2.342c-19.678-177.988-161.003-319.313-338.991-338.991v-2.342c0-23.565-19.102-42.667-42.667-42.667s-42.667 19.102-42.667 42.667v2.342c-177.989 19.678-319.314 161.003-338.99 338.991h-2.344c-23.564 0-42.667 19.102-42.667 42.667s19.103 42.667 42.667 42.667h2.344c19.676 177.989 161.001 319.314 338.99 338.99v2.344c0 23.564 19.102 42.667 42.667 42.667zM554.667 722.309v-39.642c0-23.564-19.102-42.667-42.667-42.667-21.882 0-39.915 16.471-42.38 37.691l-0.287 4.976v39.642c-127.169-18.19-228.497-116.49-251.221-242.14l-1.754-10.836h39.642c23.564 0 42.667-19.102 42.667-42.667 0-21.882-16.471-39.915-37.691-42.38l-4.976-0.287h-39.642c18.19-127.17 116.49-228.497 242.14-251.221l10.836-1.754v39.642c0 23.565 19.102 42.667 42.667 42.667 21.882 0 39.915-16.47 42.38-37.691l0.287-4.976v-39.642c127.17 18.19 228.497 116.489 251.221 242.139l1.754 10.836h-39.642c-23.565 0-42.667 19.102-42.667 42.667 0 21.882 16.47 39.915 37.691 42.38l4.976 0.287h39.642c-18.19 127.169-116.489 228.497-242.139 251.221l-10.836 1.754zM512 490.667c35.345 0 64-28.655 64-64s-28.655-64-64-64c-35.345 0-64 28.655-64 64s28.655 64 64 64z" />
<glyph unicode="&#xe90c;" glyph-name="air_balloon_fill" d="M554.667 128c23.565 0 42.667-19.102 42.667-42.667v-42.667c0-23.565-19.102-42.667-42.667-42.667h-85.333c-23.565 0-42.667 19.102-42.667 42.667v42.667c0 23.565 19.102 42.667 42.667 42.667h85.333zM512 853.334c188.514 0 341.333-152.82 341.333-341.333 0-121.86-61.056-217.847-131.17-282.121-35.127-32.196-73.301-57.225-109.060-74.355-34.876-16.713-70.822-27.524-101.103-27.524s-66.227 10.812-101.104 27.524c-35.759 17.131-73.934 42.159-109.060 74.355-70.112 64.273-131.169 160.26-131.169 282.121 0 188.513 152.82 341.333 341.333 341.333zM512 810.667c-38.076 0-74.487-7.125-107.974-20.115-8.271-13.774-17.42-30.375-26.548-49.542-28.628-60.118-57.478-146.425-57.478-250.343 0-97.806 25.556-180.014 52.43-239.468l5.048-10.879 4.101-8.441 8.139-15.827 10.813-6.63c35.936-21.263 70.584-34.12 97.116-37.714l7.709-0.8 6.648-0.24 6.648 0.24 7.708 0.8c26.528 3.594 61.174 16.451 97.11 37.714l10.813 6.63 8.138 15.827 4.103 8.441 5.048 10.879c26.872 59.453 52.428 141.662 52.428 239.468 0 103.918-28.851 190.225-57.476 250.343-9.131 19.168-18.278 35.769-26.547 49.542-33.489 12.99-69.901 20.115-107.977 20.115zM512 810.34c0.041-5.708 1.222-11.429 3.575-16.796l2.746-5.235 8.912-11.97 8.6-12.341 7.337-11.407 4.86-8.004c6.671-11.24 14.049-24.733 21.445-40.265 24.708-51.882 49.19-125.575 49.19-213.655s-24.482-161.775-49.19-213.658c-6.163-12.943-12.314-24.47-18.053-34.458l-4.222-7.2-9.635-15.398-1.732-2.622-8.6-12.339-8.282-10.981c-2.666-4.071-4.555-8.471-5.683-13.003l-0.876-4.57-0.392-5.515-0.384 5.515-1.176 5.7c-0.698 2.505-1.632 4.964-2.804 7.344l-1.936 3.505-8.933 12.006-8.6 12.339-7.337 11.408-4.86 8.004c-6.671 11.24-14.049 24.733-21.445 40.265-24.708 51.883-49.19 125.577-49.19 213.658s24.482 161.773 49.19 213.655c6.163 12.944 12.314 24.471 18.053 34.459l4.222 7.2 9.635 15.397 1.732 2.621 8.6 12.341 5.377 7.053 3.535 4.917c4.186 6.786 6.266 14.42 6.321 22.030z" />
<glyph unicode="&#xe90d;" glyph-name="air_balloon_line" d="M554.667 128c23.565 0 42.667-19.102 42.667-42.667v0-42.667c0-23.565-19.102-42.667-42.667-42.667v0h-85.333c-23.565 0-42.667 19.102-42.667 42.667v0 42.667c0 23.565 19.102 42.667 42.667 42.667v0zM512 853.334c188.514 0 341.333-152.82 341.333-341.333 0-121.86-61.056-217.847-131.17-282.121-35.127-32.196-73.301-57.225-109.060-74.355-34.876-16.713-70.822-27.524-101.103-27.524v0l-10.294 0.394c-27.961 2.082-59.808 12.275-90.81 27.131-35.759 17.131-73.934 42.159-109.060 74.355-70.112 64.273-131.169 160.26-131.169 282.121 0 188.513 152.82 341.333 341.333 341.333zM512 733.049c-28.301-50.81-64-136.066-64-242.386s35.699-191.578 64-242.385c28.301 50.807 64 136.064 64 242.385 0 106.32-35.699 191.576-64 242.386zM426.148 753.25c-99.159-35.29-170.148-129.979-170.148-241.249 0-91.473 45.609-166.153 103.497-219.213 18.208-16.691 37.324-30.933 56.045-42.573-27.153 59.785-52.876 142.289-52.876 240.448 0 110.915 32.843 201.843 63.481 262.587zM597.854 753.25c30.635-60.744 63.479-151.672 63.479-262.587 0-98.159-25.724-180.663-52.877-240.448 18.722 11.639 37.837 25.882 56.047 42.573 57.886 53.060 103.497 127.74 103.497 219.213 0 111.27-70.989 205.96-170.146 241.249z" />
<glyph unicode="&#xe90e;" glyph-name="air_condition_fill" d="M810.667 682.667c70.694 0 128-57.308 128-128v-256c0-70.694-57.306-128-128-128h-597.333c-70.692 0-128 57.306-128 128v256c0 70.692 57.308 128 128 128h597.333zM810.667 341.334h-597.333c-21.881 0-39.915-16.47-42.38-37.691l-0.287-4.976v-42.667h682.667v42.667c0 21.882-16.47 39.915-37.691 42.38l-4.976 0.287zM768 554.667c-23.565 0-42.667-19.103-42.667-42.667s19.102-42.667 42.667-42.667c23.565 0 42.667 19.102 42.667 42.667s-19.102 42.667-42.667 42.667z" />
<glyph unicode="&#xe90f;" glyph-name="air_condition_line" d="M810.667 682.667c70.694 0 128-57.308 128-128v-256c0-70.694-57.306-128-128-128h-597.333c-70.692 0-128 57.306-128 128v256c0 70.692 57.308 128 128 128h597.333zM810.667 597.334h-597.333c-21.881 0-39.915-16.471-42.38-37.691l-0.287-4.976v-256c0-21.882 16.471-39.915 37.691-42.38l4.976-0.287v85.333c0 21.882 16.471 39.915 37.691 42.38l4.976 0.287h512c21.882 0 39.915-16.47 42.38-37.691l0.287-4.976v-85.333c21.882 0 39.915 16.47 42.38 37.691l0.287 4.976v256c0 21.881-16.47 39.915-37.691 42.38l-4.976 0.287zM725.333 298.667h-426.667v-42.667h426.667v42.667zM725.333 554.667c23.565 0 42.667-19.103 42.667-42.667s-19.102-42.667-42.667-42.667c-23.565 0-42.667 19.102-42.667 42.667s19.102 42.667 42.667 42.667z" />
<glyph unicode="&#xe910;" glyph-name="air_condition_open_fill" d="M426.667 256c23.565 0 42.667-19.102 42.667-42.667v-49.988c0-33.946-13.483-66.505-37.491-90.509l-17.671-17.673c-16.662-16.661-43.677-16.661-60.34 0s-16.662 43.678 0 60.339l17.673 17.673c8.002 8.004 12.497 18.854 12.497 30.17v49.988c0 23.565 19.102 42.667 42.665 42.667zM597.333 256c21.882 0 39.915-16.47 42.38-37.691l0.287-4.976v-49.988c0-9.429 3.123-18.536 8.794-25.941l3.703-4.228 17.673-17.673c16.666-16.661 16.666-43.678 0-60.339-15.38-15.38-39.583-16.563-56.32-3.549l-4.019 3.549-17.673 17.673c-22.004 22.004-35.17 51.196-37.212 82.055l-0.279 8.453v49.988c0 23.565 19.102 42.667 42.667 42.667zM256.001 256c21.881 0 39.915-16.47 42.38-37.691l0.287-4.976v-26.138c0-34.432-20.657-65.245-51.951-78.532l-6.398-2.42-56.159-18.722c-22.355-7.45-46.518 4.629-53.969 26.987-6.919 20.756 3.004 43.073 22.355 52.123l4.63 1.846 56.159 18.718v26.138c0 23.565 19.102 42.667 42.667 42.667zM768 256c21.882 0 39.915-16.47 42.38-37.691l0.287-4.976v-26.138l56.162-18.718c22.353-7.454 34.436-31.616 26.982-53.969-6.917-20.76-28.249-32.658-49.158-28.287l-4.811 1.301-56.158 18.722c-32.668 10.888-55.368 40.23-58.078 74.117l-0.272 6.834v26.138c0 23.565 19.102 42.667 42.667 42.667zM768 810.667c68.17 0 123.89-53.287 127.783-120.479l0.217-7.521v-256c0-68.17-53.285-123.89-120.479-127.783l-7.521-0.217h-512c-68.168 0-123.89 53.285-127.783 120.479l-0.217 7.521v256c0 68.168 53.287 123.89 120.479 127.783l7.521 0.217h512zM768 469.334h-512c-23.564 0-42.667-19.102-42.667-42.667v-42.667h597.333v42.667c0 23.565-19.102 42.667-42.667 42.667zM725.333 682.667c-23.565 0-42.667-19.103-42.667-42.667s19.102-42.667 42.667-42.667c23.565 0 42.667 19.103 42.667 42.667s-19.102 42.667-42.667 42.667z" />
<glyph unicode="&#xe911;" glyph-name="air_condition_open_line" d="M768 768c70.694 0 128-57.308 128-128v-213.333c0-70.694-57.306-128-128-128h-511.999c-70.693 0-128 57.306-128 128v213.333c0 70.692 57.307 128 128 128h511.999zM768 682.667h-511.999c-21.881 0-39.915-16.471-42.38-37.691l-0.287-4.976v-213.333c0-21.882 16.471-39.915 37.691-42.38l4.976-0.287v85.333c0 21.882 16.471 39.915 37.691 42.38l4.976 0.287h426.665c21.882 0 39.915-16.47 42.38-37.691l0.287-4.976v-85.333c21.882 0 39.915 16.47 42.38 37.691l0.287 4.976v213.333c0 21.881-16.47 39.915-37.691 42.38l-4.976 0.287zM682.667 426.667h-341.332v-42.667h341.332v42.667zM682.667 640c23.565 0 42.667-19.103 42.667-42.667s-19.102-42.667-42.667-42.667c-23.565 0-42.667 19.103-42.667 42.667s19.102 42.667 42.667 42.667zM426.667 256c23.565 0 42.667-19.102 42.667-42.667v-49.988c0-33.946-13.483-66.505-37.491-90.509l-17.671-17.673c-16.662-16.661-43.677-16.661-60.34 0s-16.662 43.678 0 60.339l17.673 17.673c8.002 8.004 12.497 18.854 12.497 30.17v49.988c0 23.565 19.102 42.667 42.665 42.667zM554.667 213.334c0 23.565 19.102 42.667 42.667 42.667s42.667-19.102 42.667-42.667v-49.988c0-11.315 4.497-22.165 12.497-30.17l17.673-17.673c16.666-16.661 16.666-43.678 0-60.339-16.661-16.661-43.678-16.661-60.339 0l-17.673 17.673c-24.004 24.004-37.491 56.563-37.491 90.509v49.988zM256.001 256c23.564 0 42.667-19.102 42.667-42.667v-26.138c0-36.727-23.503-69.338-58.349-80.951l-56.159-18.722c-22.355-7.45-46.518 4.629-53.969 26.987-7.451 22.353 4.63 46.515 26.985 53.969l56.159 18.718v26.138c0 23.565 19.102 42.667 42.667 42.667zM725.333 213.334c0 23.565 19.102 42.667 42.667 42.667s42.667-19.102 42.667-42.667v-26.138l56.162-18.718c22.353-7.454 34.436-31.616 26.982-53.969-7.45-22.357-31.616-34.436-53.969-26.987l-56.158 18.722c-34.846 11.614-58.351 44.224-58.351 80.951v26.138z" />
<glyph unicode="&#xe912;" glyph-name="airbnb_fill" d="M512 871.875c-49.037 0-92.692-21.965-128.756-55.271-65.712-60.687-123.092-164.343-168.89-264.648-46.906-102.727-85.805-211.48-111.783-290.098-31.945-96.678 9.998-199.232 94.789-250.103 90.703-54.421 207.692-36.804 277.725 43.247 11.776 13.466 24.239 27.75 36.915 42.347 12.672-14.596 25.135-28.881 36.915-42.347 70.033-80.051 187.021-97.668 277.726-43.247 84.787 50.871 126.733 153.425 94.788 250.103-25.98 78.618-64.879 187.371-111.782 290.098-45.803 100.305-103.181 203.961-168.892 264.648-36.066 33.306-79.718 55.271-128.755 55.271zM596.194 195.636c22.054 26.27 40.717 49.139 52.339 64.636 44.19 58.923 55.94 134.494 33.51 198.293-23.612 67.165-84.369 117.441-170.044 117.441s-146.432-50.276-170.045-117.441c-22.429-63.799-10.682-139.371 33.511-198.293 11.622-15.497 30.286-38.366 52.34-64.636-16.543-19.106-33.225-38.251-49.058-56.35-28.868-32.998-77.435-40.631-115.533-17.775-35.992 21.598-51.356 63.121-39.107 100.186 25.265 76.459 62.5 180.331 106.683 277.094 45.29 99.191 93.952 181.903 139.298 223.78 28.557 26.376 55.262 26.376 83.823 0 45.346-41.878 94.007-124.59 139.298-223.78 44.181-96.764 81.417-200.636 106.679-277.094 12.25-37.065-3.115-78.588-39.104-100.186-38.101-22.857-86.665-15.223-115.533 17.775-15.834 18.099-32.516 37.244-49.058 56.35zM512 294.498c-14.447 17.421-26.317 32.154-34.133 42.573-19.81 26.411-22.729 57.506-15.155 79.040 6.387 18.172 20.297 31.893 49.289 31.893s42.901-13.722 49.289-31.893c7.569-21.534 4.651-52.629-15.155-79.040-7.817-10.419-19.686-25.152-34.133-42.573z" />
<glyph unicode="&#xe913;" glyph-name="airbnb_line" d="M511.996 850.542c-42.304 0-81.024-18.897-114.28-49.61-62.317-57.552-118.244-157.717-163.958-257.837-46.452-101.734-85.074-209.672-110.933-287.931-28.663-86.741 8.851-179.123 85.509-225.118 81.935-49.161 187.52-33.207 250.692 39.006 16.789 19.187 34.893 39.966 52.971 60.868 18.082-20.902 36.186-41.681 52.971-60.868 63.172-72.213 168.759-88.166 250.692-39.006 76.659 45.995 114.172 138.377 85.513 225.118-25.86 78.259-64.482 186.197-110.933 287.931-45.717 100.119-101.645 200.285-163.959 257.837-33.254 30.713-71.974 49.61-114.283 49.61zM568.145 195.461c26.91 31.804 49.95 59.789 63.317 77.611 40.128 53.504 50.406 121.664 30.451 178.419-20.74 58.999-73.69 103.182-149.918 103.182s-129.176-44.183-149.917-103.182c-19.953-56.755-9.677-124.915 30.452-178.419 13.367-17.822 36.411-45.807 63.321-77.611-20.463-23.714-41.454-47.825-61.049-70.225-35.729-40.836-95.7-50.138-142.565-22.016-44.125 26.475-63.919 78.17-48.388 125.171 25.384 76.817 62.897 181.504 107.533 279.262 45.375 99.375 95.49 185.578 144.23 230.591 22.020 20.337 40.998 26.965 56.384 26.965 15.39 0 34.364-6.628 56.388-26.965 48.738-45.013 98.854-131.215 144.226-230.591 44.638-97.758 82.15-202.445 107.533-279.262 15.535-47.002-4.262-98.697-48.384-125.171-46.869-28.122-106.837-18.82-142.566 22.016-19.597 22.4-40.585 46.511-61.047 70.225zM511.996 261.236c-22.042 26.197-40.358 48.585-51.2 63.036-23.872 31.829-28.262 70.336-18.214 98.918 9.259 26.334 30.976 46.148 69.414 46.148s60.156-19.814 69.414-46.148c10.048-28.582 5.658-67.089-18.214-98.918-10.842-14.451-29.154-36.838-51.2-63.036z" />
<glyph unicode="&#xe914;" glyph-name="airplane_fill" d="M840.96 817.623c31.287-6.257 55.74-30.712 61.999-61.998 9.079-45.395-3.059-92.451-32.964-127.792l-117.41-138.758 82.974-304.243c5.039-18.466-0.205-38.212-13.739-51.746l-55.565-55.565c-20.245-20.245-54.238-15.484-68.143 9.545l-127.706 229.871-139.008-96.235v-33.566c0-14.144-5.619-27.712-15.621-37.713l-71.813-71.812c-22.652-22.652-61.223-13.547-71.353 16.845l-23.206 69.615-69.616 23.206c-30.391 10.129-39.496 48.7-16.844 71.351l71.813 71.812c10.002 10.005 23.567 15.625 37.712 15.625h33.566l96.236 139.008-229.872 127.705c-25.027 13.904-29.789 47.897-9.544 68.142l55.563 55.563c13.533 13.533 33.28 18.778 51.745 13.742l304.243-82.976 138.761 117.412c35.341 29.903 82.398 42.041 127.791 32.962z" />
<glyph unicode="&#xe915;" glyph-name="airplane_line" d="M840.96 817.623c31.287-6.257 55.74-30.712 61.999-61.998 9.079-45.395-3.059-92.451-32.964-127.791l-117.41-138.758 82.974-304.243c5.039-18.466-0.205-38.212-13.739-51.746l-55.565-55.565c-20.245-20.245-54.238-15.484-68.143 9.545l-125.547 225.988-121.933-101.606 8.99-44.937c3.494-17.485-1.98-35.563-14.588-48.171l-70.969-70.967c-20.798-20.8-55.861-15.113-69.015 11.2l-53.715 107.426-107.429 53.717c-26.308 13.154-31.998 48.213-11.2 69.013l70.969 70.972c12.609 12.608 30.686 18.082 48.172 14.583l44.934-8.986 101.609 121.929-225.989 125.551c-25.027 13.904-29.789 47.897-9.544 68.142l55.563 55.563c13.533 13.533 33.28 18.778 51.745 13.742l304.243-82.976 138.761 117.412c35.341 29.903 82.398 42.041 127.791 32.962zM819.989 734.652c-18.53 2.475-37.329-2.973-51.699-15.133l-155.721-131.764c-10.837-9.167-25.489-12.411-39.177-8.678l-307.764 83.936-2.834-2.834 221.634-123.129c23.62-13.123 29.474-44.496 12.177-65.258l-150.359-180.429c-10.115-12.139-26.063-17.766-41.556-14.669l-52.785 10.556-17.42-17.421 66.46-33.229c9.083-4.54 16.448-11.904 20.989-20.988l33.231-66.462 17.42 17.421-10.557 52.783c-3.098 15.497 2.531 31.441 14.669 41.557l180.427 150.357c20.762 17.301 52.139 11.443 65.259-12.177l123.132-221.632 2.833 2.833-83.938 307.767c-3.733 13.692-0.486 28.341 8.678 39.173l131.767 155.721c12.16 14.371 17.609 33.169 15.134 51.698z" />
<glyph unicode="&#xe916;" glyph-name="airplay_fill" d="M491.273 217.485c10.21 14.285 31.437 14.285 41.647 0v0l118.003-165.047c12.113-16.943 0-40.491-20.826-40.491v0h-236.002c-20.827 0-32.938 23.548-20.825 40.491v0zM853.333 768c47.13 0 85.333-38.205 85.333-85.333v-469.333c0-47.13-38.204-85.333-85.333-85.333h-158.315l-134.43 188.032c-23.825 33.327-73.361 33.327-97.186 0l-134.432-188.032h-158.304c-47.128 0-85.333 38.204-85.333 85.333v469.333c0 47.128 38.205 85.333 85.333 85.333h682.667z" />
<glyph unicode="&#xe917;" glyph-name="airplay_line" d="M476.945 257.856c16.116 22.536 48.53 23.944 66.679 4.226l3.431-4.226 127.172-177.877c19.464-27.226 1.769-64.576-30.368-67.915l-4.687-0.241h-254.342c-33.467 0-53.562 36.116-37.586 64.203l2.53 3.953 127.17 177.877zM512 160.162l-45.043-63.006h90.091l-45.047 63.006zM853.333 768c44.987 0 81.842-34.811 85.099-78.965l0.234-6.369v-469.333c0-44.987-34.81-81.842-78.965-85.099l-6.369-0.234h-170.667v85.333h170.667v469.333h-682.667v-469.333h170.667v-85.333h-170.667c-44.986 0-81.842 34.81-85.099 78.965l-0.234 6.369v469.333c0 44.986 34.811 81.842 78.965 85.099l6.369 0.234h682.667z" />
<glyph unicode="&#xe918;" glyph-name="airpods_2_fill" d="M298.667 768c-117.821 0-213.333-95.513-213.333-213.333h853.333c0 117.821-95.514 213.333-213.333 213.333h-426.667zM938.667 469.334h-213.333c0-47.13-38.204-85.333-85.333-85.333h-256c-47.128 0-85.333 38.204-85.333 85.333h-213.333v-170.667c0-117.82 95.513-213.333 213.333-213.333h426.667c117.82 0 213.333 95.514 213.333 213.333v170.667z" />
<glyph unicode="&#xe919;" glyph-name="airpods_2_line" d="M85.333 554.667c0 117.821 95.513 213.333 213.333 213.333h426.667c117.82 0 213.333-95.513 213.333-213.333v-256c0-117.82-95.514-213.333-213.333-213.333h-426.667c-117.821 0-213.333 95.514-213.333 213.333v256zM170.667 469.334v-170.667c0-70.694 57.308-128 128-128h426.667c70.694 0 128 57.306 128 128v170.667h-128c0-47.13-38.204-85.333-85.333-85.333h-256c-47.128 0-85.333 38.204-85.333 85.333h-128zM170.667 554.667h682.667c0 70.692-57.306 128-128 128h-426.667c-70.692 0-128-57.308-128-128z" />
<glyph unicode="&#xe91a;" glyph-name="airpods_fill" d="M277.333 768c-106.039 0-192-85.961-192-192s85.961-192 192-192c7.205 0 14.323 0.397 21.333 1.173v-214.502c0-47.13 38.205-85.333 85.333-85.333 47.13 0 85.333 38.204 85.333 85.333v405.332c0 106.037-85.962 191.997-192 191.997zM746.667 768c106.039 0 192-85.961 192-192s-85.961-192-192-192c-7.206 0-14.323 0.397-21.333 1.173v-214.502c0-47.13-38.204-85.333-85.333-85.333s-85.333 38.204-85.333 85.333v405.332c0 106.037 85.961 191.997 192 191.997z" />
<glyph unicode="&#xe91b;" glyph-name="airpods_line" d="M277.333 768c-106.039 0-192-85.961-192-192 0-98.829 74.668-180.215 170.667-190.827v-193.169c0-58.914 47.756-106.667 106.667-106.667s106.667 47.753 106.667 106.667v383.998c0 106.037-85.962 191.997-192 191.997zM170.667 576c0 58.91 47.756 106.667 106.667 106.667s106.667-47.755 106.667-106.664v-383.998c0-11.785-9.551-21.333-21.333-21.333s-21.333 9.549-21.333 21.333v236.173c0 12.373-5.368 24.132-14.714 32.239-9.346 8.102-21.748 11.75-33.994 10.001-4.973-0.713-10.077-1.084-15.292-1.084-58.91 0-106.667 47.756-106.667 106.667zM746.667 768c-106.039 0-192-85.96-192-191.997v-383.999c0-58.914 47.757-106.667 106.667-106.667s106.667 47.753 106.667 106.667v193.169c96 10.611 170.667 91.998 170.667 190.827 0 106.039-85.961 192-192 192zM640 576.003c0 58.909 47.757 106.664 106.667 106.664s106.667-47.756 106.667-106.667c0-58.91-47.757-106.667-106.667-106.667-5.214 0-10.321 0.371-15.292 1.084-12.245 1.749-24.649-1.899-33.993-10.001-9.348-8.107-14.716-19.866-14.716-32.239v-236.173c0-11.785-9.553-21.333-21.333-21.333s-21.333 9.549-21.333 21.333v383.998z" />
<glyph unicode="&#xe91c;" glyph-name="alarm_1_fill" d="M746.662 810.667c82.475 0 149.338-66.859 149.338-149.333 0-40.151-15.846-76.561-41.574-103.37 26.586-52.227 41.574-111.345 41.574-173.963 0-112.397-48.29-213.517-125.252-283.742l27.422-27.422c16.661-16.661 16.661-43.678 0-60.339s-43.678-16.661-60.339 0l-37.039 37.039c-55.753-31.535-120.171-49.536-188.791-49.536s-133.041 18.001-188.791 49.536l-37.039-37.039c-16.663-16.661-43.677-16.661-60.34 0s-16.662 43.678 0 60.339l27.424 27.422c-76.964 70.225-125.254 171.345-125.254 283.742 0 62.618 14.988 121.737 41.573 173.962-25.702 26.793-41.573 63.229-41.573 103.372 0 82.475 66.859 149.333 149.333 149.333 49.090 0 92.594-23.695 119.78-60.148 36.273 11.359 74.865 17.481 114.886 17.481s78.609-6.122 114.884-17.481c27.204 36.477 70.694 60.148 119.778 60.148zM512.004 597.334c-21.882 0-39.915-16.471-42.38-37.691l-0.287-4.976v-170.082c-0.124-9.262 2.747-18.557 8.613-26.304l3.879-4.45 89.83-89.83c16.666-16.666 43.678-16.666 60.339 0 15.384 15.38 16.567 39.579 3.55 56.319l-3.55 4.020-77.329 77.329v152.998c0 23.564-19.102 42.667-42.667 42.667z" />
<glyph unicode="&#xe91d;" glyph-name="alarm_1_line" d="M746.662 810.667c82.475 0 149.338-66.859 149.338-149.333 0-40.151-15.846-76.561-41.574-103.37 26.586-52.227 41.574-111.345 41.574-173.963 0-107.714-44.35-205.071-115.783-274.804l-9.47-8.938 27.422-27.422c16.661-16.661 16.661-43.678 0-60.339-15.38-15.38-39.583-16.563-56.32-3.549l-4.019 3.549-37.039 37.039c-55.753-31.535-120.171-49.536-188.791-49.536-63.342 0-123.105 15.338-175.773 42.501l-13.017 7.035-37.039-37.039c-16.663-16.661-43.677-16.661-60.34 0-15.38 15.38-16.564 39.583-3.549 56.32l3.549 4.019 27.424 27.422c-76.964 70.225-125.254 171.345-125.254 283.742 0 62.618 14.988 121.737 41.573 173.962-25.702 26.793-41.573 63.229-41.573 103.372 0 82.475 66.859 149.333 149.333 149.333 49.090 0 92.594-23.695 119.78-60.148 36.273 11.359 74.865 17.481 114.886 17.481s78.609-6.122 114.884-17.481c27.204 36.477 70.694 60.148 119.778 60.148zM512 682.667c-164.949 0-298.667-133.718-298.667-298.667s133.718-298.667 298.667-298.667c164.949 0 298.667 133.717 298.667 298.667s-133.717 298.667-298.667 298.667zM512 597.334c23.565 0 42.667-19.103 42.667-42.667v-152.998l77.333-77.329c16.661-16.666 16.661-43.678 0-60.339-16.666-16.666-43.678-16.666-60.343 0l-89.83 89.83c-8.478 8.478-12.642 19.639-12.493 30.754v170.082c0 23.564 19.102 42.667 42.667 42.667zM277.333 725.334c-35.346 0-64-28.654-64-64 0-10.094 2.327-19.641 6.495-28.14 26.958 31.577 58.945 58.731 94.721 80.221-10.503 7.517-23.357 11.919-37.216 11.919zM746.662 725.334c-13.858 0-26.709-4.408-37.21-11.919 35.772-21.489 67.759-48.64 94.711-80.215 4.164 8.5 6.498 18.051 6.498 28.134 0 35.346-28.655 64-64 64z" />
<glyph unicode="&#xe91e;" glyph-name="alarm_2_fill" d="M512 768c212.079 0 384-171.923 384-384 0-212.079-171.921-384-384-384-212.077 0-384 171.921-384 384 0 212.077 171.923 384 384 384zM512.004 597.334c-21.882 0-39.915-16.471-42.38-37.691l-0.287-4.976v-170.082c-0.124-9.262 2.747-18.557 8.613-26.304l3.879-4.45 89.83-89.83c16.666-16.666 43.678-16.666 60.339 0 15.384 15.38 16.567 39.579 3.55 56.319l-3.55 4.020-77.329 77.329v152.998c0 23.564-19.102 42.667-42.667 42.667zM768.034 827.478c53.385-30.882 100.655-71.113 139.588-118.45 14.967-18.2 12.348-45.088-5.854-60.055-18.197-14.968-45.086-12.349-60.053 5.851-32.486 39.498-71.919 73.052-116.412 98.789-20.399 11.799-27.366 37.9-15.569 58.297 11.802 20.398 37.901 27.368 58.3 15.568zM314.267 811.909c11.799-20.397 4.829-46.497-15.568-58.297-44.491-25.737-83.926-59.291-116.411-98.789-14.968-18.2-41.856-20.82-60.055-5.851s-20.819 41.856-5.851 60.055c38.932 47.337 86.202 87.568 139.589 118.45 20.397 11.799 46.498 4.829 58.297-15.568z" />
<glyph unicode="&#xe91f;" glyph-name="alarm_2_line" d="M512 768c212.079 0 384-171.923 384-384 0-212.079-171.921-384-384-384-212.077 0-384 171.921-384 384 0 212.077 171.923 384 384 384zM512 682.667c-164.949 0-298.667-133.718-298.667-298.667s133.718-298.667 298.667-298.667c164.949 0 298.667 133.717 298.667 298.667s-133.717 298.667-298.667 298.667zM512 597.334c21.882 0 39.915-16.471 42.38-37.691l0.287-4.976v-152.998l77.333-77.329c16.661-16.666 16.661-43.678 0-60.339-15.384-15.384-39.583-16.567-56.323-3.55l-4.020 3.55-89.83 89.83c-7.065 7.065-11.134 15.993-12.208 25.206l-0.285 5.549v170.082c0 23.564 19.102 42.667 42.667 42.667zM709.734 811.909c11.802 20.398 37.901 27.368 58.3 15.568 53.385-30.882 100.655-71.113 139.588-118.45 14.967-18.2 12.348-45.088-5.854-60.055-18.197-14.968-45.086-12.349-60.053 5.851-32.486 39.498-71.919 73.052-116.412 98.789-20.399 11.799-27.366 37.9-15.569 58.297zM255.97 827.478c20.397 11.799 46.498 4.829 58.297-15.568s4.829-46.497-15.568-58.297c-44.491-25.737-83.926-59.291-116.411-98.789-14.968-18.2-41.856-20.82-60.055-5.851s-20.819 41.856-5.851 60.055c38.932 47.337 86.202 87.568 139.589 118.45z" />
<glyph unicode="&#xe920;" glyph-name="album_2_fill" d="M845.632 682.667c52.732 0 92.843-47.349 84.173-99.362v0l-71.113-426.667c-6.857-41.148-42.458-71.305-84.173-71.305v0h-525.044c-41.714 0-77.315 30.157-84.172 71.305v0l-71.111 426.667c-8.669 52.013 31.441 99.362 84.172 99.362v0zM768 810.667c23.565 0 42.667-19.103 42.667-42.667s-19.102-42.667-42.667-42.667v0h-512c-23.564 0-42.667 19.103-42.667 42.667s19.103 42.667 42.667 42.667v0z" />
<glyph unicode="&#xe921;" glyph-name="album_2_line" d="M255.999 810.667c-23.564 0-42.667-19.103-42.667-42.667s19.102-42.667 42.667-42.667h512.001c23.565 0 42.667 19.103 42.667 42.667s-19.102 42.667-42.667 42.667h-512.001zM178.365 682.667c-52.731 0-92.841-47.349-84.172-99.362l71.111-426.667c6.857-41.148 42.458-71.305 84.172-71.305h525.044c41.715 0 77.316 30.157 84.173 71.305l71.113 426.667c8.67 52.013-31.441 99.362-84.173 99.362h-667.267zM178.365 597.334h667.267l-71.113-426.667h-525.044l-71.111 426.667z" />
<glyph unicode="&#xe922;" glyph-name="album_fill" d="M512 853.334c235.639 0 426.667-191.025 426.667-426.667 0-235.639-191.027-426.667-426.667-426.667-235.642 0-426.667 191.027-426.667 426.667 0 235.642 191.025 426.667 426.667 426.667zM512 512c-47.13 0-85.333-38.204-85.333-85.333s38.204-85.333 85.333-85.333c47.13 0 85.333 38.204 85.333 85.333s-38.204 85.333-85.333 85.333zM488.115 661.046c-7.851 22.217-32.226 33.862-54.443 26.010-67.534-23.869-123.828-71.262-159.134-132.297-11.799-20.397-4.829-46.496 15.568-58.297 20.397-11.797 46.498-4.83 58.297 15.569 25.266 43.678 65.565 77.555 113.702 94.57 22.221 7.852 33.865 32.229 26.010 54.446z" />
<glyph unicode="&#xe923;" glyph-name="album_line" d="M512 853.334c235.639 0 426.667-191.025 426.667-426.667 0-235.639-191.027-426.667-426.667-426.667-235.642 0-426.667 191.027-426.667 426.667 0 235.642 191.025 426.667 426.667 426.667zM512 768c-188.513 0-341.333-152.82-341.333-341.333s152.82-341.333 341.333-341.333c188.514 0 341.333 152.819 341.333 341.333s-152.819 341.333-341.333 341.333zM512 512c47.13 0 85.333-38.204 85.333-85.333s-38.204-85.333-85.333-85.333c-47.13 0-85.333 38.204-85.333 85.333s38.204 85.333 85.333 85.333zM488.115 661.041c7.855-22.217-3.789-46.594-26.010-54.447-48.137-17.015-88.436-50.892-113.702-94.569-11.799-20.398-37.9-27.369-58.297-15.568-20.397 11.797-27.368 37.899-15.568 58.296 35.307 61.035 91.601 108.428 159.134 132.297 22.217 7.853 46.592-3.792 54.443-26.009z" />
<glyph unicode="&#xe924;" glyph-name="alert_fill" d="M567.424 804.365l368.384-638.059c24.631-42.667-6.157-96-55.424-96h-736.768c-49.267 0-80.059 53.333-55.426 96l368.381 638.058c24.636 42.667 86.221 42.667 110.852 0zM512 298.667c-23.565 0-42.667-19.102-42.667-42.667s19.102-42.667 42.667-42.667c23.565 0 42.667 19.102 42.667 42.667s-19.102 42.667-42.667 42.667zM512 597.334c-21.882 0-39.915-16.471-42.38-37.691l-0.287-4.976v-170.667c0-23.565 19.102-42.667 42.667-42.667 21.882 0 39.915 16.47 42.38 37.691l0.287 4.976v170.667c0 23.564-19.102 42.667-42.667 42.667z" />
<glyph unicode="&#xe925;" glyph-name="alert_line" d="M567.424 804.365l368.384-638.059c24.631-42.667-6.157-96-55.424-96h-736.768c-49.267 0-80.059 53.333-55.426 96l368.381 638.058c24.636 42.667 86.221 42.667 110.852 0zM512 729.698l-331.433-574.059h662.864l-331.43 574.059zM512 298.667c23.565 0 42.667-19.102 42.667-42.667s-19.102-42.667-42.667-42.667c-23.565 0-42.667 19.102-42.667 42.667s19.102 42.667 42.667 42.667zM512 597.334c23.565 0 42.667-19.103 42.667-42.667v-170.667c0-23.565-19.102-42.667-42.667-42.667s-42.667 19.102-42.667 42.667v170.667c0 23.564 19.102 42.667 42.667 42.667z" />
<glyph unicode="&#xe926;" glyph-name="alert_octagon_fill" d="M653.385 853.334c22.63 0 44.339-8.99 60.339-24.994l199.949-199.948c16.004-16.003 24.994-37.708 24.994-60.34v-282.769c0-22.63-8.99-44.339-24.994-60.339l-199.949-199.949c-16.004-16.004-37.709-24.994-60.339-24.994h-282.769c-22.632 0-44.337 8.99-60.34 24.994l-199.948 199.949c-16.003 16.004-24.994 37.709-24.994 60.339v282.769c0 22.632 8.99 44.337 24.994 60.34l199.948 199.948c16.003 16.003 37.708 24.994 60.34 24.994h282.769zM512 298.667c-23.565 0-42.667-19.102-42.667-42.667s19.102-42.667 42.667-42.667c23.565 0 42.667 19.102 42.667 42.667s-19.102 42.667-42.667 42.667zM512 682.667c-21.882 0-39.915-16.471-42.38-37.691l-0.287-4.976v-256c0-23.565 19.102-42.667 42.667-42.667 21.882 0 39.915 16.47 42.38 37.691l0.287 4.976v256c0 23.564-19.102 42.667-42.667 42.667z" />
<glyph unicode="&#xe927;" glyph-name="alert_octagon_line" d="M653.385 853.334c22.63 0 44.339-8.99 60.339-24.994l199.949-199.948c16.004-16.003 24.994-37.708 24.994-60.34v-282.769c0-22.63-8.99-44.339-24.994-60.339l-199.949-199.949c-16.004-16.004-37.709-24.994-60.339-24.994h-282.769c-22.632 0-44.337 8.99-60.34 24.994l-199.948 199.949c-16.003 16.004-24.994 37.709-24.994 60.339v282.769c0 22.632 8.99 44.337 24.994 60.34l199.948 199.948c16.003 16.003 37.708 24.994 60.34 24.994h282.769zM653.385 768h-282.769l-199.948-199.948v-282.769l199.948-199.949h282.769l199.949 199.949v282.769l-199.949 199.948zM512 298.667c23.565 0 42.667-19.102 42.667-42.667s-19.102-42.667-42.667-42.667c-23.565 0-42.667 19.102-42.667 42.667s19.102 42.667 42.667 42.667zM512 682.667c23.565 0 42.667-19.103 42.667-42.667v-256c0-23.565-19.102-42.667-42.667-42.667s-42.667 19.102-42.667 42.667v256c0 23.564 19.102 42.667 42.667 42.667z" />
<glyph unicode="&#xe928;" glyph-name="align_arrow_down_fill" d="M738.266 301.061c-24.994 24.994-65.519 24.994-90.509 0l-71.753-71.753v325.357c0 35.346-28.655 64-64 64-35.349 0-64-28.654-64-64v-325.378l-71.779 71.774c-24.994 24.994-65.516 24.994-90.51 0-24.994-24.99-24.994-65.515 0-90.509l181.019-181.018c24.994-24.994 65.515-24.994 90.509 0l181.022 181.018c24.994 24.994 24.994 65.519 0 90.509zM213.333 832c-35.346 0-64-28.654-64-64s28.654-64 64-64h597.333c35.345 0 64 28.654 64 64s-28.655 64-64 64h-597.333z" />
<glyph unicode="&#xe929;" glyph-name="align_arrow_down_line" d="M723.179 285.978c-16.661 16.661-43.678 16.661-60.339 0l-108.169-108.173v376.86c0 23.564-19.106 42.667-42.667 42.667-23.565 0-42.667-19.102-42.667-42.667v-376.881l-108.197 108.194c-16.663 16.661-43.677 16.661-60.34 0s-16.662-43.678 0-60.339l181.017-181.022c16.666-16.661 43.678-16.661 60.343 0l181.018 181.022c16.661 16.661 16.661 43.678 0 60.339zM213.333 810.667c-23.564 0-42.667-19.102-42.667-42.667s19.102-42.667 42.667-42.667h597.333c23.565 0 42.667 19.102 42.667 42.667s-19.102 42.667-42.667 42.667h-597.333z" />
<glyph unicode="&#xe92a;" glyph-name="align_arrow_left_fill" d="M386.4 200.401c24.994 24.994 24.994 65.519 0 90.509l-71.75 71.753h325.355c35.345 0 64 28.655 64 64s-28.655 64-64 64h-325.384l71.779 71.779c24.994 24.994 24.994 65.516 0 90.51s-65.516 24.994-90.51 0l-181.019-181.019c-24.994-24.994-24.994-65.515 0-90.509l181.020-181.022c24.994-24.994 65.516-24.994 90.51 0zM917.338 682.667c0 35.346-28.655 64-64 64s-64-28.654-64-64v-512c0-35.345 28.655-64 64-64s64 28.655 64 64v512z" />
<glyph unicode="&#xe92b;" glyph-name="align_arrow_left_line" d="M371.315 215.488c16.662 16.661 16.662 43.678 0 60.339l-108.169 108.169h376.858c23.565 0 42.667 19.102 42.667 42.667s-19.102 42.667-42.667 42.667h-376.887l108.198 108.198c16.662 16.662 16.662 43.677 0 60.34s-43.677 16.662-60.34 0l-181.020-181.017c-16.662-16.666-16.662-43.678 0-60.343l181.020-181.018c16.663-16.661 43.677-16.661 60.34 0zM896.004 682.667c0 23.564-19.102 42.667-42.667 42.667s-42.667-19.103-42.667-42.667v-512c0-23.565 19.102-42.667 42.667-42.667s42.667 19.102 42.667 42.667v512z" />
<glyph unicode="&#xe92c;" glyph-name="align_arrow_right_fill" d="M637.606 652.931c-24.994-24.993-24.994-65.516 0-90.51l71.753-71.75h-325.359c-35.346 0-64-28.655-64-64 0-35.349 28.654-64 64-64h325.38l-71.774-71.778c-24.994-24.994-24.994-65.519 0-90.509 24.99-24.994 65.515-24.994 90.509 0l181.018 181.018c24.994 24.994 24.994 65.515 0 90.509l-181.018 181.021c-24.994 24.994-65.519 24.994-90.509 0zM106.667 128c0-35.345 28.654-64 64-64s64 28.655 64 64v597.333c0 35.346-28.654 64-64 64s-64-28.654-64-64v-597.333z" />
<glyph unicode="&#xe92d;" glyph-name="align_arrow_right_line" d="M652.689 637.847c-16.661-16.663-16.661-43.677 0-60.34l108.173-108.169h-376.862c-23.564 0-42.667-19.106-42.667-42.667 0-23.565 19.102-42.667 42.667-42.667h376.883l-108.194-108.198c-16.661-16.661-16.661-43.678 0-60.339s43.678-16.661 60.339 0l181.022 181.022c16.661 16.661 16.661 43.674 0 60.339l-181.022 181.018c-16.661 16.662-43.678 16.662-60.339 0zM128 128c0-23.565 19.103-42.667 42.667-42.667s42.667 19.102 42.667 42.667v597.333c0 23.564-19.102 42.667-42.667 42.667s-42.667-19.102-42.667-42.667v-597.333z" />
<glyph unicode="&#xe92e;" glyph-name="align_arrow_up_fill" d="M285.736 552.267c24.993-24.994 65.516-24.994 90.51 0l71.75 71.752v-325.353c0-35.349 28.655-64 64-64 35.349 0 64 28.651 64 64v325.378l71.778-71.777c24.994-24.994 65.519-24.994 90.509 0 24.994 24.993 24.994 65.516 0 90.51l-181.018 181.019c-24.994 24.994-65.515 24.994-90.509 0l-181.021-181.020c-24.994-24.993-24.994-65.516 0-90.51zM810.667 21.329c35.345 0 64 28.655 64 64s-28.655 64-64 64h-597.333c-35.346 0-64-28.655-64-64s28.654-64 64-64h597.333z" />
<glyph unicode="&#xe92f;" glyph-name="align_arrow_up_line" d="M300.82 567.352c16.663-16.662 43.677-16.662 60.34 0l108.169 108.171v-376.856c0-23.565 19.106-42.667 42.667-42.667 23.565 0 42.667 19.102 42.667 42.667v376.881l108.198-108.196c16.661-16.662 43.678-16.662 60.339 0s16.661 43.677 0 60.34l-181.018 181.020c-16.666 16.662-43.678 16.662-60.343 0l-181.018-181.020c-16.662-16.663-16.662-43.677 0-60.34zM810.667 42.663c23.565 0 42.667 19.102 42.667 42.667s-19.102 42.667-42.667 42.667h-597.333c-23.564 0-42.667-19.102-42.667-42.667s19.102-42.667 42.667-42.667h597.333z" />
<glyph unicode="&#xe930;" glyph-name="align_bottom_fill" d="M213.333 810.667c-47.128 0-85.333-38.205-85.333-85.333v-597.333c0-47.13 38.205-85.333 85.333-85.333h170.667c47.13 0 85.333 38.204 85.333 85.333v597.333c0 47.128-38.204 85.333-85.333 85.333h-170.667zM640 640c-47.13 0-85.333-38.205-85.333-85.333v-426.667c0-47.13 38.204-85.333 85.333-85.333h170.667c47.13 0 85.333 38.204 85.333 85.333v426.667c0 47.128-38.204 85.333-85.333 85.333h-170.667z" />
<glyph unicode="&#xe931;" glyph-name="align_bottom_line" d="M213.333 810.667c-47.128 0-85.333-38.205-85.333-85.333v-597.333c0-47.13 38.205-85.333 85.333-85.333h170.667c47.13 0 85.333 38.204 85.333 85.333v597.333c0 47.128-38.204 85.333-85.333 85.333h-170.667zM213.333 725.334h170.667v-597.333h-170.667v597.333zM640 640c-47.13 0-85.333-38.205-85.333-85.333v-426.667c0-47.13 38.204-85.333 85.333-85.333h170.667c47.13 0 85.333 38.204 85.333 85.333v426.667c0 47.128-38.204 85.333-85.333 85.333h-170.667zM640 554.667h170.667v-426.667h-170.667v426.667z" />
<glyph unicode="&#xe932;" glyph-name="align_center_fill" d="M725.333 192c35.345 0 64-28.655 64-64 0-33.266-25.383-60.606-57.837-63.707l-6.163-0.293h-426.667c-35.346 0-64 28.655-64 64 0 33.266 25.382 60.606 57.836 63.707l6.164 0.293h426.667zM853.333 405.334c35.345 0 64-28.655 64-64s-28.655-64-64-64h-682.667c-35.346 0-64 28.655-64 64s28.654 64 64 64h682.667zM725.333 618.667c35.345 0 64-28.654 64-64 0-33.267-25.383-60.606-57.837-63.707l-6.163-0.293h-426.667c-35.346 0-64 28.654-64 64 0 33.267 25.382 60.606 57.836 63.707l6.164 0.293h426.667zM853.333 832c35.345 0 64-28.654 64-64 0-33.267-25.383-60.606-57.837-63.707l-6.163-0.293h-682.667c-35.346 0-64 28.654-64 64 0 33.267 25.382 60.606 57.836 63.707l6.164 0.293h682.667z" />
<glyph unicode="&#xe933;" glyph-name="align_center_line" d="M725.333 170.667c23.565 0 42.667-19.102 42.667-42.667 0-21.882-16.47-39.915-37.691-42.38l-4.976-0.287h-426.667c-23.564 0-42.667 19.102-42.667 42.667 0 21.882 16.471 39.915 37.691 42.38l4.976 0.287h426.667zM853.333 384c23.565 0 42.667-19.102 42.667-42.667s-19.102-42.667-42.667-42.667h-682.667c-23.564 0-42.667 19.102-42.667 42.667s19.103 42.667 42.667 42.667h682.667zM725.333 597.334c23.565 0 42.667-19.103 42.667-42.667 0-21.881-16.47-39.915-37.691-42.38l-4.976-0.287h-426.667c-23.564 0-42.667 19.103-42.667 42.667 0 21.881 16.471 39.915 37.691 42.38l4.976 0.287h426.667zM853.333 810.667c23.565 0 42.667-19.103 42.667-42.667 0-21.881-16.47-39.915-37.691-42.38l-4.976-0.287h-682.667c-23.564 0-42.667 19.103-42.667 42.667 0 21.881 16.471 39.915 37.691 42.38l4.976 0.287h682.667z" />
<glyph unicode="&#xe934;" glyph-name="align_horizontal_center_fill" d="M298.667 810.667c-47.128 0-85.333-38.205-85.333-85.333v-170.667c0-47.13 38.205-85.333 85.333-85.333h426.667c47.13 0 85.333 38.204 85.333 85.333v170.667c0 47.128-38.204 85.333-85.333 85.333h-426.667zM213.333 384c-47.128 0-85.333-38.204-85.333-85.333v-170.667c0-47.13 38.205-85.333 85.333-85.333h597.333c47.13 0 85.333 38.204 85.333 85.333v170.667c0 47.13-38.204 85.333-85.333 85.333h-597.333z" />
<glyph unicode="&#xe935;" glyph-name="align_horizontal_center_line" d="M298.667 810.667c-47.128 0-85.333-38.205-85.333-85.333v-170.667c0-47.13 38.205-85.333 85.333-85.333h426.667c47.13 0 85.333 38.204 85.333 85.333v170.667c0 47.128-38.204 85.333-85.333 85.333h-426.667zM298.667 725.334h426.667v-170.667h-426.667v170.667zM213.333 384c-47.128 0-85.333-38.204-85.333-85.333v-170.667c0-47.13 38.205-85.333 85.333-85.333h597.333c47.13 0 85.333 38.204 85.333 85.333v170.667c0 47.13-38.204 85.333-85.333 85.333h-597.333zM213.333 298.667h597.333v-170.667h-597.333v170.667z" />
<glyph unicode="&#xe936;" glyph-name="align_justify_fill" d="M170.667 832c-35.346 0-64-28.654-64-64s28.654-64 64-64h682.667c35.345 0 64 28.654 64 64s-28.655 64-64 64h-682.667zM170.667 618.667c-35.346 0-64-28.654-64-64s28.654-64 64-64h682.667c35.345 0 64 28.654 64 64s-28.655 64-64 64h-682.667zM106.667 341.334c0 35.345 28.654 64 64 64h682.667c35.345 0 64-28.655 64-64s-28.655-64-64-64h-682.667c-35.346 0-64 28.655-64 64zM170.667 192c-35.346 0-64-28.655-64-64s28.654-64 64-64h682.667c35.345 0 64 28.655 64 64s-28.655 64-64 64h-682.667z" />
<glyph unicode="&#xe937;" glyph-name="align_justify_line" d="M170.667 810.667c-23.564 0-42.667-19.103-42.667-42.667s19.103-42.667 42.667-42.667h682.667c23.565 0 42.667 19.103 42.667 42.667s-19.102 42.667-42.667 42.667h-682.667zM170.667 597.334c-23.564 0-42.667-19.103-42.667-42.667s19.103-42.667 42.667-42.667h682.667c23.565 0 42.667 19.103 42.667 42.667s-19.102 42.667-42.667 42.667h-682.667zM128 341.334c0 23.565 19.103 42.667 42.667 42.667h682.667c23.565 0 42.667-19.102 42.667-42.667s-19.102-42.667-42.667-42.667h-682.667c-23.564 0-42.667 19.102-42.667 42.667zM170.667 170.667c-23.564 0-42.667-19.102-42.667-42.667s19.103-42.667 42.667-42.667h682.667c23.565 0 42.667 19.102 42.667 42.667s-19.102 42.667-42.667 42.667h-682.667z" />
<glyph unicode="&#xe938;" glyph-name="align_left_2_fill" d="M213.333 810.667c-47.128 0-85.333-38.205-85.333-85.333v-170.667c0-47.13 38.205-85.333 85.333-85.333h426.667c47.13 0 85.333 38.204 85.333 85.333v170.667c0 47.128-38.204 85.333-85.333 85.333h-426.667zM213.333 384c-47.128 0-85.333-38.204-85.333-85.333v-170.667c0-47.13 38.205-85.333 85.333-85.333h597.333c47.13 0 85.333 38.204 85.333 85.333v170.667c0 47.13-38.204 85.333-85.333 85.333h-597.333z" />
<glyph unicode="&#xe939;" glyph-name="align_left_2_line" d="M213.333 810.667c-47.128 0-85.333-38.205-85.333-85.333v-170.667c0-47.13 38.205-85.333 85.333-85.333h426.667c47.13 0 85.333 38.204 85.333 85.333v170.667c0 47.128-38.204 85.333-85.333 85.333h-426.667zM213.333 725.334h426.667v-170.667h-426.667v170.667zM213.333 384c-47.128 0-85.333-38.204-85.333-85.333v-170.667c0-47.13 38.205-85.333 85.333-85.333h597.333c47.13 0 85.333 38.204 85.333 85.333v170.667c0 47.13-38.204 85.333-85.333 85.333h-597.333zM213.333 298.667h597.333v-170.667h-597.333v170.667z" />
<glyph unicode="&#xe93a;" glyph-name="align_left_fill" d="M597.333 192c35.345 0 64-28.655 64-64 0-33.266-25.383-60.606-57.837-63.707l-6.163-0.293h-426.667c-35.346 0-64 28.655-64 64 0 33.266 25.382 60.606 57.836 63.707l6.164 0.293h426.667zM853.333 405.334c35.345 0 64-28.655 64-64s-28.655-64-64-64h-682.667c-35.346 0-64 28.655-64 64s28.654 64 64 64h682.667zM597.333 618.667c35.345 0 64-28.654 64-64 0-33.267-25.383-60.606-57.837-63.707l-6.163-0.293h-426.667c-35.346 0-64 28.654-64 64 0 33.267 25.382 60.606 57.836 63.707l6.164 0.293h426.667zM853.333 832c35.345 0 64-28.654 64-64 0-33.267-25.383-60.606-57.837-63.707l-6.163-0.293h-682.667c-35.346 0-64 28.654-64 64 0 33.267 25.382 60.606 57.836 63.707l6.164 0.293h682.667z" />
<glyph unicode="&#xe93b;" glyph-name="align_left_line" d="M597.333 170.667c23.565 0 42.667-19.102 42.667-42.667 0-21.882-16.47-39.915-37.691-42.38l-4.976-0.287h-426.667c-23.564 0-42.667 19.102-42.667 42.667 0 21.882 16.471 39.915 37.691 42.38l4.976 0.287h426.667zM853.333 384c23.565 0 42.667-19.102 42.667-42.667s-19.102-42.667-42.667-42.667h-682.667c-23.564 0-42.667 19.102-42.667 42.667s19.103 42.667 42.667 42.667h682.667zM597.333 597.334c23.565 0 42.667-19.103 42.667-42.667 0-21.881-16.47-39.915-37.691-42.38l-4.976-0.287h-426.667c-23.564 0-42.667 19.103-42.667 42.667 0 21.881 16.471 39.915 37.691 42.38l4.976 0.287h426.667zM853.333 810.667c23.565 0 42.667-19.103 42.667-42.667 0-21.881-16.47-39.915-37.691-42.38l-4.976-0.287h-682.667c-23.564 0-42.667 19.103-42.667 42.667 0 21.881 16.471 39.915 37.691 42.38l4.976 0.287h682.667z" />
<glyph unicode="&#xe93c;" glyph-name="align_right_2_fill" d="M810.667 384c44.987 0 81.842-34.81 85.099-78.965l0.234-6.369v-170.667c0-44.987-34.81-81.842-78.965-85.099l-6.369-0.234h-597.333c-44.986 0-81.842 34.81-85.099 78.965l-0.234 6.369v170.667c0 44.987 34.811 81.842 78.965 85.099l6.369 0.234h597.333zM810.667 810.667c44.987 0 81.842-34.811 85.099-78.965l0.234-6.369v-170.667c0-44.987-34.81-81.842-78.965-85.099l-6.369-0.234h-426.667c-44.986 0-81.842 34.81-85.099 78.965l-0.234 6.369v170.667c0 44.986 34.811 81.842 78.965 85.099l6.369 0.234h426.667z" />
<glyph unicode="&#xe93d;" glyph-name="align_right_2_line" d="M384 810.667c-47.128 0-85.333-38.205-85.333-85.333v-170.667c0-47.13 38.205-85.333 85.333-85.333h426.667c47.13 0 85.333 38.204 85.333 85.333v170.667c0 47.128-38.204 85.333-85.333 85.333h-426.667zM384 725.334h426.667v-170.667h-426.667v170.667zM213.333 384c-47.128 0-85.333-38.204-85.333-85.333v-170.667c0-47.13 38.205-85.333 85.333-85.333h597.333c47.13 0 85.333 38.204 85.333 85.333v170.667c0 47.13-38.204 85.333-85.333 85.333h-597.333zM213.333 298.667h597.333v-170.667h-597.333v170.667z" />
<glyph unicode="&#xe93e;" glyph-name="align_right_fill" d="M853.333 192c35.345 0 64-28.655 64-64 0-33.266-25.383-60.606-57.837-63.707l-6.163-0.293h-426.667c-35.346 0-64 28.655-64 64 0 33.266 25.382 60.606 57.836 63.707l6.164 0.293h426.667zM853.333 405.334c35.345 0 64-28.655 64-64s-28.655-64-64-64h-682.667c-35.346 0-64 28.655-64 64s28.654 64 64 64h682.667zM853.333 618.667c35.345 0 64-28.654 64-64 0-33.267-25.383-60.606-57.837-63.707l-6.163-0.293h-426.667c-35.346 0-64 28.654-64 64 0 33.267 25.382 60.606 57.836 63.707l6.164 0.293h426.667zM853.333 832c35.345 0 64-28.654 64-64 0-33.267-25.383-60.606-57.837-63.707l-6.163-0.293h-682.667c-35.346 0-64 28.654-64 64 0 33.267 25.382 60.606 57.836 63.707l6.164 0.293h682.667z" />
<glyph unicode="&#xe93f;" glyph-name="align_right_line" d="M853.333 170.667c23.565 0 42.667-19.102 42.667-42.667 0-21.882-16.47-39.915-37.691-42.38l-4.976-0.287h-426.667c-23.564 0-42.667 19.102-42.667 42.667 0 21.882 16.471 39.915 37.691 42.38l4.976 0.287h426.667zM853.333 384c23.565 0 42.667-19.102 42.667-42.667s-19.102-42.667-42.667-42.667h-682.667c-23.564 0-42.667 19.102-42.667 42.667s19.103 42.667 42.667 42.667h682.667zM853.333 597.334c23.565 0 42.667-19.103 42.667-42.667 0-21.881-16.47-39.915-37.691-42.38l-4.976-0.287h-426.667c-23.564 0-42.667 19.103-42.667 42.667 0 21.881 16.471 39.915 37.691 42.38l4.976 0.287h426.667zM853.333 810.667c23.565 0 42.667-19.103 42.667-42.667 0-21.881-16.47-39.915-37.691-42.38l-4.976-0.287h-682.667c-23.564 0-42.667 19.103-42.667 42.667 0 21.881 16.471 39.915 37.691 42.38l4.976 0.287h682.667z" />
<glyph unicode="&#xe940;" glyph-name="align_top_fill" d="M213.333 810.667c-47.128 0-85.333-38.205-85.333-85.333v-597.333c0-47.13 38.205-85.333 85.333-85.333h170.667c47.13 0 85.333 38.204 85.333 85.333v597.333c0 47.128-38.204 85.333-85.333 85.333h-170.667zM640 810.667c-47.13 0-85.333-38.205-85.333-85.333v-426.667c0-47.13 38.204-85.333 85.333-85.333h170.667c47.13 0 85.333 38.204 85.333 85.333v426.667c0 47.128-38.204 85.333-85.333 85.333h-170.667z" />
<glyph unicode="&#xe941;" glyph-name="align_top_line" d="M213.333 810.667c-47.128 0-85.333-38.205-85.333-85.333v-597.333c0-47.13 38.205-85.333 85.333-85.333h170.667c47.13 0 85.333 38.204 85.333 85.333v597.333c0 47.128-38.204 85.333-85.333 85.333h-170.667zM213.333 725.334h170.667v-597.333h-170.667v597.333zM640 810.667c-47.13 0-85.333-38.205-85.333-85.333v-426.667c0-47.13 38.204-85.333 85.333-85.333h170.667c47.13 0 85.333 38.204 85.333 85.333v426.667c0 47.128-38.204 85.333-85.333 85.333h-170.667zM640 725.334h170.667v-426.667h-170.667v426.667z" />
<glyph unicode="&#xe942;" glyph-name="align_vertical_center_fill" d="M213.333 810.667c-47.128 0-85.333-38.205-85.333-85.333v-597.333c0-47.13 38.205-85.333 85.333-85.333h170.667c47.13 0 85.333 38.204 85.333 85.333v597.333c0 47.128-38.204 85.333-85.333 85.333h-170.667zM640 725.334c-47.13 0-85.333-38.205-85.333-85.333v-426.667c0-47.13 38.204-85.333 85.333-85.333h170.667c47.13 0 85.333 38.204 85.333 85.333v426.667c0 47.128-38.204 85.333-85.333 85.333h-170.667z" />
<glyph unicode="&#xe943;" glyph-name="align_vertical_center_line" d="M213.333 810.667c-47.128 0-85.333-38.205-85.333-85.333v-597.333c0-47.13 38.205-85.333 85.333-85.333h170.667c47.13 0 85.333 38.204 85.333 85.333v597.333c0 47.128-38.204 85.333-85.333 85.333h-170.667zM213.333 725.334h170.667v-597.333h-170.667v597.333zM640 725.334c-47.13 0-85.333-38.205-85.333-85.333v-426.667c0-47.13 38.204-85.333 85.333-85.333h170.667c47.13 0 85.333 38.204 85.333 85.333v426.667c0 47.128-38.204 85.333-85.333 85.333h-170.667zM640 640h170.667v-426.667h-170.667v426.667z" />
<glyph unicode="&#xe944;" glyph-name="alipay_fill" d="M891.422 231.326c30.195 58.53 47.245 124.945 47.245 195.341 0 235.642-191.027 426.667-426.667 426.667-235.642 0-426.667-191.025-426.667-426.667 0-235.639 191.025-426.667 426.667-426.667 134.438 0 254.357 62.178 332.565 159.347l-30.942 15.471c-51.75 23.531-96.508 44.608-136.222 63.309-34.334 16.166-64.913 30.562-92.962 43.23-13.111-18.517-26.321-34.244-39.603-47.526-47.855-47.855-95.979-63.164-139.503-63.164-79.703 0-149.333 50.342-149.333 128 0 71.851 63.144 128 128 128 54.084 0 106.406-14.234 165.841-37.726 9.045 17.374 18.274 36.966 27.631 59.059h-193.472c-23.564 0-42.667 19.102-42.667 42.667s19.102 42.667 42.667 42.667h85.333v21.333h-128c-23.564 0-42.667 19.103-42.667 42.667s19.103 42.667 42.667 42.667h128v42.667c0 23.564 19.102 42.667 42.667 42.667s42.667-19.103 42.667-42.667v-42.667h128c23.565 0 42.667-19.103 42.667-42.667s-19.102-42.667-42.667-42.667h-128v-21.333h85.333c13.918 0 26.961-6.789 34.948-18.189 7.983-11.401 9.907-25.98 5.15-39.057-16.994-46.737-34.24-86.78-51.695-120.99 26.82-12.224 56.013-25.958 87.902-40.964 40.004-18.82 84.25-39.637 133.35-61.956 0.478-0.218 0.956-0.448 1.425-0.683l40.341-20.169zM384 341.334c35.266 0 71.983-8.29 119.334-25.941-6.464-8.107-12.753-15.138-18.837-21.222-32.145-32.145-58.687-38.17-79.164-38.17-48.297 0-64 26.458-64 42.667 0 22.016 22.189 42.667 42.667 42.667z" />
<glyph unicode="&#xe945;" glyph-name="alipay_line" d="M862.946 183.941c3.183 3.354 5.875 7.287 7.898 11.738 0.038 0.085 0.077 0.171 0.111 0.252 42.85 66.526 67.712 145.728 67.712 230.737 0 235.642-191.027 426.667-426.667 426.667-235.642 0-426.667-191.025-426.667-426.667 0-235.639 191.025-426.667 426.667-426.667 145.463 0 273.924 72.794 350.946 183.94zM170.667 426.667c0 188.513 152.82 341.333 341.333 341.333s341.333-152.82 341.333-341.333c0-57.161-14.050-111.040-38.886-158.37-35.307 16.273-67.934 31.625-98.142 45.837-31.889 15.006-61.082 28.74-87.902 40.964 17.455 34.21 34.701 74.253 51.695 120.99 4.757 13.077 2.833 27.657-5.15 39.057-7.987 11.4-21.030 18.189-34.948 18.189h-85.333v21.333h128c23.565 0 42.667 19.103 42.667 42.667s-19.102 42.667-42.667 42.667h-128v42.667c0 23.564-19.102 42.667-42.667 42.667s-42.667-19.103-42.667-42.667v-42.667h-128c-23.564 0-42.667-19.103-42.667-42.667s19.103-42.667 42.667-42.667h128v-21.333h-85.333c-23.564 0-42.667-19.103-42.667-42.667s19.102-42.667 42.667-42.667h193.472c-9.357-22.093-18.586-41.685-27.631-59.059-59.435 23.492-111.757 37.726-165.841 37.726-64.856 0-128-56.149-128-128 0-77.658 69.63-128 149.333-128 43.524 0 91.648 15.309 139.503 63.164 13.282 13.282 26.492 29.009 39.603 47.526 28.049-12.668 58.615-27.059 92.949-43.226 26.65-12.548 55.573-26.167 87.351-40.879-62.443-68.753-152.55-111.919-252.74-111.919-188.513 0-341.333 152.819-341.333 341.333zM384 341.334c35.266 0 71.983-8.29 119.334-25.941-6.464-8.107-12.753-15.138-18.837-21.222-32.145-32.145-58.687-38.17-79.164-38.17-48.297 0-64 26.458-64 42.667 0 22.016 22.189 42.667 42.667 42.667z" />
<glyph unicode="&#xe946;" glyph-name="american_football_fill" d="M318.153 724.174c9.614 12.526 19.612 24.349 29.855 35.371 39.133-46.978 98.072-76.878 163.992-76.878s124.86 29.9 163.994 76.878c10.24-11.022 20.241-22.845 29.854-35.371 57.766-75.269 104.819-180.162 104.819-297.507s-47.053-222.238-104.819-297.506c-9.613-12.527-19.614-24.35-29.854-35.371-39.134 46.976-98.074 76.877-163.994 76.877s-124.859-29.901-163.991-76.877c-10.243 11.021-20.241 22.844-29.856 35.371-57.768 75.268-104.82 180.16-104.82 297.506 0 117.344 47.052 222.238 104.82 297.507zM554.667 554.667c0 23.564-19.102 42.667-42.667 42.667s-42.667-19.103-42.667-42.667c-23.565 0-42.667-19.103-42.667-42.667s19.102-42.667 42.667-42.667v-85.333c-23.565 0-42.667-19.102-42.667-42.667s19.102-42.667 42.667-42.667c0-23.565 19.102-42.667 42.667-42.667s42.667 19.102 42.667 42.667c23.565 0 42.667 19.102 42.667 42.667s-19.102 42.667-42.667 42.667v85.333c23.565 0 42.667 19.102 42.667 42.667s-19.102 42.667-42.667 42.667zM412.167 37.449c30.858-21.329 66.011-37.449 99.833-37.449s68.975 16.119 99.831 37.449c-23.458 29.197-59.465 47.885-99.831 47.885s-76.373-18.688-99.833-47.885zM512 853.334c33.822 0 68.975-16.122 99.831-37.449-23.458-29.196-59.465-47.884-99.831-47.884s-76.373 18.688-99.833 47.884c30.858 21.328 66.011 37.449 99.833 37.449z" />
<glyph unicode="&#xe947;" glyph-name="american_football_line" d="M512 853.334c34.001 0 69.35-16.294 100.326-37.791 32.119-22.292 64.563-53.641 93.521-91.369 57.766-75.269 104.819-180.162 104.819-297.507s-47.053-222.238-104.819-297.506c-28.958-37.73-61.402-69.077-93.521-91.371-30.976-21.495-66.325-37.79-100.326-37.79s-69.35 16.294-100.326 37.79c-32.122 22.293-64.564 53.641-93.521 91.371-57.768 75.268-104.82 180.16-104.82 297.506 0 117.344 47.052 222.238 104.82 297.507 28.957 37.728 61.399 69.078 93.521 91.369 30.976 21.497 66.325 37.791 100.326 37.791zM512 128c-21.423 0-41.604-5.248-59.349-14.549l7.676-5.555c25.024-17.365 43.008-22.562 51.674-22.562s26.65 5.197 51.674 22.562l7.676 5.555c-17.745 9.301-37.926 14.549-59.349 14.549zM633.609 678.033c-34.487-23.961-76.416-38.040-121.609-38.040-41.426 0-80.112 11.83-112.835 32.258l-8.774 5.782-4.544-5.815c-48.899-63.712-87.18-150.819-87.18-245.552 0-89.747 34.358-172.651 79.552-235.299l7.629-10.252 4.547-5.82c34.486 23.957 76.413 38.037 121.606 38.037 41.426 0 80.11-11.831 112.831-32.256l8.773-5.781 4.548 5.82c48.9 63.71 87.181 150.818 87.181 245.551 0 89.747-34.357 172.649-79.552 235.3l-7.629 10.252-4.544 5.815zM512 597.334c23.565 0 42.667-19.103 42.667-42.667 23.565 0 42.667-19.103 42.667-42.667 0-21.882-16.47-39.915-37.691-42.38l-4.976-0.287v-85.333c23.565 0 42.667-19.102 42.667-42.667s-19.102-42.667-42.667-42.667c0-23.565-19.102-42.667-42.667-42.667s-42.667 19.102-42.667 42.667c-23.565 0-42.667 19.102-42.667 42.667 0 21.882 16.47 39.915 37.691 42.38l4.976 0.287v85.333c-23.565 0-42.667 19.102-42.667 42.667s19.102 42.667 42.667 42.667c0 23.564 19.102 42.667 42.667 42.667zM512 768c-8.666 0-26.65-5.197-51.674-22.563l-7.68-5.559c17.741-9.305 37.926-14.553 59.354-14.553s41.609 5.248 59.354 14.553l-7.68 5.558c-25.024 17.366-43.008 22.563-51.674 22.563z" />
<glyph unicode="&#xe948;" glyph-name="anchor_fill" d="M448 501.594c-74.572 26.356-128 97.475-128 181.073 0 106.039 85.961 192 192 192s192-85.961 192-192c0-83.598-53.427-154.717-128-181.073v-388.527c125.385 25.451 224.149 124.215 249.6 249.6h-57.6c-35.345 0-64 28.655-64 64s28.655 64 64 64h128c35.345 0 64-28.655 64-64 0-247.424-200.576-448-448-448s-448 200.576-448 448c0 35.345 28.654 64 64 64h128c35.346 0 64-28.655 64-64s-28.654-64-64-64h-57.599c25.452-125.385 124.214-224.149 249.599-249.6v388.527zM512 746.667c-35.345 0-64-28.654-64-64s28.655-64 64-64c35.345 0 64 28.654 64 64s-28.655 64-64 64z" />
<glyph unicode="&#xe949;" glyph-name="anchor_line" d="M469.333 517.377c-73.61 18.946-128 85.766-128 165.29 0 94.257 76.41 170.667 170.667 170.667 94.255 0 170.667-76.41 170.667-170.667 0-79.524-54.391-146.344-128-165.29v-429.402c154.398 19.251 276.774 141.628 296.026 296.026h-82.692c-23.565 0-42.667 19.102-42.667 42.667s19.102 42.667 42.667 42.667h128c23.565 0 42.667-19.102 42.667-42.667 0-235.639-191.027-426.667-426.667-426.667-235.642 0-426.667 191.027-426.667 426.667 0 23.565 19.103 42.667 42.667 42.667h128c23.564 0 42.667-19.102 42.667-42.667s-19.103-42.667-42.667-42.667h-82.693c19.253-154.398 141.627-276.774 296.026-296.026v429.402zM512 768c-47.13 0-85.333-38.205-85.333-85.333s38.204-85.333 85.333-85.333c47.13 0 85.333 38.205 85.333 85.333s-38.204 85.333-85.333 85.333z" />
<glyph unicode="&#xe94a;" glyph-name="and_fill" d="M342.074 816.584c70.284 70.284 184.237 70.284 254.522 0 71.941-71.942 69.659-188.529-3.257-257.702l-7.043-6.343-52.975-45.296 174.903-204.049c14.093 29.372 28.211 63.249 42.172 102.332 11.887 33.289 48.508 50.637 81.796 38.746 33.289-11.887 50.633-48.508 38.746-81.796-20.347-56.972-41.841-106.157-64.417-148.475l-8.517-15.549 61.257-71.467c23.002-26.837 19.895-67.238-6.942-90.244-25.16-21.564-62.245-20.182-85.735 2.189l-4.509 4.753-40.418 47.155c-13.419-14.622-27.132-27.584-41.126-39.036-73.318-59.985-147.861-73.135-211.196-73.135-137.783 0-277.333 109.901-277.333 277.333 0 48.482 18.378 93.141 40.323 129.835 22.231 37.171 50.898 70.784 77.946 98.411 10.492 10.714 20.948 20.738 30.987 29.938l9.886 8.92-25.548 29.806c-62.233 72.605-60.287 179.693 3.097 249.937l6.776 7.132 6.606 6.606zM434.458 425.899c-10.517-9.399-21.651-19.891-32.729-31.206-22.952-23.441-44.285-49.028-59.553-74.556-15.555-26.010-22.176-47.548-22.176-64.137 0-88.567 73.783-149.333 149.333-149.333 43.332 0 86.123 8.188 130.138 44.203 9.783 8.001 19.893 17.599 30.241 29.123l7.805 9.009-203.059 236.898zM506.082 726.075c-18.943 18.943-48.87 20.206-69.278 3.789l-4.22-3.789-6.607-6.606-4.247-4.705c-17.173-21.11-18.328-51.171-2.824-73.536l3.874-5.017 27.242-31.781 53.086 45.394 4.317 4.136c18.796 20.179 18.655 52.119-1.343 72.116z" />
<glyph unicode="&#xe94b;" glyph-name="and_line" d="M521.169 741.16c30.217-30.219 28.284-79.776-4.194-107.55l-69.286-59.242-41.106 47.959c-28.105 32.789-26.227 81.69 4.31 112.227l6.606 6.605c28.628 28.628 75.041 28.628 103.671 0zM503.223 509.577l69.205 59.177c70.293 60.104 74.475 167.35 9.079 232.746-61.952 61.952-162.397 61.952-224.35 0l-6.606-6.606c-62.067-62.067-65.884-161.456-8.76-228.101l39.351-45.91c-16.722-14.152-36.134-31.649-55.632-51.562-26.365-26.927-53.809-59.204-74.88-94.434-20.88-34.914-37.299-75.721-37.299-118.886 0-154.287 128.589-256 256-256 60.002 0 129.25 12.322 197.683 68.314 18.645 15.253 36.915 33.493 54.75 55.177l56.503-65.924c15.339-17.89 42.274-19.964 60.164-4.625 17.89 15.334 19.964 42.27 4.629 60.16l-71.078 82.923c27.661 46.874 54.029 104.085 78.861 173.628 7.927 22.191-3.639 46.605-25.83 54.532-22.191 7.923-46.605-3.639-54.528-25.83-18.918-52.966-38.263-96.892-57.643-133.329l-209.621 244.553zM665.19 189.492c-17.745-23.292-35.255-41.263-52.207-55.134-48.9-40.009-96.986-49.024-143.65-49.024-85.923 0-170.667 68.958-170.667 170.667 0 21.905 8.581 47.296 25.2 75.085 16.429 27.469 38.984 54.396 62.619 78.532 17.459 17.835 35.005 33.638 50.195 46.473l228.51-266.598z" />
<glyph unicode="&#xe94c;" glyph-name="android_2_fill" d="M787.081 763.497c21.077-10.538 29.619-36.167 19.081-57.243l-50.112-100.229c110.4-77.12 182.618-205.137 182.618-350.024v-42.667c0-47.13-38.204-85.333-85.333-85.333h-682.667c-47.128 0-85.333 38.204-85.333 85.333v42.667c0 144.887 72.217 272.905 182.619 350.024l-50.115 100.229c-10.538 21.076-1.996 46.705 19.081 57.243s46.705 1.996 57.243-19.081l48.366-96.731c51.948 22.507 109.252 34.982 169.472 34.982s117.525-12.475 169.472-34.983l48.367 96.732c10.539 21.076 36.164 29.619 57.242 19.081zM320 426.667c-35.346 0-64-28.655-64-64s28.654-64 64-64c35.346 0 64 28.655 64 64s-28.654 64-64 64zM704 426.667c-35.345 0-64-28.655-64-64s28.655-64 64-64c35.345 0 64 28.655 64 64s-28.655 64-64 64z" />
<glyph unicode="&#xe94d;" glyph-name="android_2_line" d="M787.081 763.497c21.077-10.538 29.619-36.167 19.081-57.243l-50.112-100.228c110.4-77.12 182.618-205.137 182.618-350.025v-42.667c0-47.125-38.204-85.333-85.333-85.333h-682.667c-47.128 0-85.333 38.208-85.333 85.333v42.667c0 144.887 72.217 272.906 182.618 350.025l-50.114 100.228c-10.538 21.076-1.995 46.705 19.081 57.243s46.705 1.996 57.243-19.081l48.365-96.73c51.948 22.507 109.253 34.983 169.472 34.983s117.525-12.476 169.472-34.983l48.367 96.73c10.539 21.076 36.164 29.619 57.242 19.081zM512 597.335c-188.513 0-341.333-152.82-341.333-341.334v-42.667h682.667v42.667c0 188.514-152.819 341.334-341.333 341.334zM362.667 426.667c35.346 0 64-28.651 64-64 0-35.345-28.654-64-64-64s-64 28.655-64 64c0 35.349 28.654 64 64 64zM661.333 426.667c35.345 0 64-28.651 64-64 0-35.345-28.655-64-64-64s-64 28.655-64 64c0 35.349 28.655 64 64 64z" />
<glyph unicode="&#xe94e;" glyph-name="android_fill" d="M853.333 341.334v-213.333c0-70.694-57.306-128-128-128h-426.667c-70.692 0-128 57.306-128 128v213.333h682.667zM512 810.667c56.738 0 110.242-13.844 157.321-38.338l25.843 25.841c16.661 16.662 43.678 16.662 60.339 0s16.661-43.677 0-60.34l-14.963-14.962c69.261-62.471 112.794-152.919 112.794-253.534v-42.667h-682.667v42.667c0 100.615 43.534 191.063 112.793 253.534l-14.963 14.962c-16.662 16.663-16.662 43.677 0 60.34s43.677 16.662 60.34 0l25.841-25.841c47.078 24.494 100.584 38.338 157.322 38.338zM384 640c-23.564 0-42.667-19.103-42.667-42.667s19.103-42.667 42.667-42.667c23.564 0 42.667 19.103 42.667 42.667s-19.103 42.667-42.667 42.667zM640 640c-23.565 0-42.667-19.103-42.667-42.667s19.102-42.667 42.667-42.667c23.565 0 42.667 19.103 42.667 42.667s-19.102 42.667-42.667 42.667z" />
<glyph unicode="&#xe94f;" glyph-name="android_line" d="M512 810.667c56.738 0 110.242-13.844 157.321-38.338l25.843 25.841c16.661 16.662 43.678 16.662 60.339 0s16.661-43.677 0-60.34l-14.963-14.962c69.261-62.471 112.794-152.919 112.794-253.534v-341.333c0-70.694-57.306-128-128-128h-426.667c-70.692 0-128 57.306-128 128v341.333c0 100.615 43.534 191.063 112.793 253.534l-14.963 14.962c-16.662 16.663-16.662 43.677 0 60.34s43.677 16.662 60.34 0l25.841-25.841c47.078 24.494 100.584 38.338 157.322 38.338zM768 341.334h-512v-213.333c0-23.565 19.103-42.667 42.667-42.667h426.667c23.565 0 42.667 19.102 42.667 42.667v213.333zM512 725.334c-138.172 0-250.776-109.464-255.823-246.403l-0.177-9.597v-42.667h512v42.667c0 141.385-114.615 256-256 256zM384 597.334c23.564 0 42.667-19.103 42.667-42.667s-19.103-42.667-42.667-42.667c-23.564 0-42.667 19.103-42.667 42.667s19.103 42.667 42.667 42.667zM640 597.334c23.565 0 42.667-19.103 42.667-42.667s-19.102-42.667-42.667-42.667c-23.565 0-42.667 19.103-42.667 42.667s19.102 42.667 42.667 42.667z" />
<glyph unicode="&#xe950;" glyph-name="anniversary_fill" d="M341.333 810.667c23.564 0 42.667-19.103 42.667-42.667v-42.667h256v42.667c0 23.564 19.102 42.667 42.667 42.667s42.667-19.103 42.667-42.667v-42.667h85.333c47.13 0 85.333-38.205 85.333-85.333v-512c0-47.13-38.204-85.333-85.333-85.333h-597.333c-47.128 0-85.333 38.204-85.333 85.333v512c0 47.128 38.205 85.333 85.333 85.333h85.333v42.667c0 23.564 19.103 42.667 42.667 42.667zM509.504 505.967c-69.922 70.7-170.298 5.325-168.137-91.063 1.302-58.039 46.746-113.664 136.333-166.882l2.278-1.357c10.539-6.289 24.073-14.362 32.021-14.362s21.483 8.073 32.022 14.362l2.278 1.357c89.587 53.218 135.031 108.843 136.333 166.882 2.163 96.388-98.214 161.763-168.137 91.063-1.348-1.365-3.644-1.365-4.992 0z" />
<glyph unicode="&#xe951;" glyph-name="anniversary_line" d="M682.667 810.667c21.882 0 39.915-16.471 42.38-37.691l0.287-4.976v-42.667h85.333c44.987 0 81.842-34.811 85.099-78.965l0.234-6.369v-512c0-44.987-34.81-81.842-78.965-85.099l-6.369-0.234h-597.333c-44.986 0-81.842 34.81-85.099 78.965l-0.234 6.369v512c0 44.986 34.811 81.842 78.965 85.099l6.369 0.234h85.333v42.667c0 23.564 19.103 42.667 42.667 42.667 21.881 0 39.915-16.471 42.38-37.691l0.287-4.976v-42.667h256v42.667c0 23.564 19.102 42.667 42.667 42.667zM810.667 640h-597.333v-512h597.333v512zM647.074 559.959c47.454-27.648 79.629-82.855 78.212-146.015-1.756-78.31-60.139-142.655-146.679-196.229l-10.518-6.377c-17.161-10.231-35.392-21.7-56.089-21.7-15.523 0-29.659 6.451-42.997 13.993l-13.093 7.707c-92.296 54.827-155.372 121.165-157.199 202.607-1.417 63.159 30.759 118.367 78.213 146.015 40.695 23.709 91.090 25.893 135.076-1.566 43.985 27.459 94.383 25.275 135.074 1.566zM604.117 486.225c-16.163 9.417-35.392 10.508-54.51-5.813l-4.775-4.448c-16.759-16.949-43.451-18.16-61.629-3.632l-4.035 3.632c-20.668 20.894-41.775 20.463-59.285 10.261-19.674-11.46-36.604-37.137-35.859-70.366 0.746-33.243 26.408-75.971 105.323-124.997l10.144-6.161c4.151-2.466 8.277-4.983 12.51-7.305l6.286 3.598 6.225 3.707c86.878 51.61 114.688 96.529 115.465 131.157 0.747 33.229-16.183 58.906-35.857 70.366z" />
<glyph unicode="&#xe952;" glyph-name="announcement_fill" d="M682.338 810.091c56.887 33.185 128.329-7.85 128.329-73.709v-139.049c70.694 0 128-57.308 128-128 0-70.694-57.306-128-128-128v-128c0-70.319-80.277-110.46-136.533-68.267l-87.932 65.95c-47.13 35.345-101.858 58.782-159.536 68.617v-121.335c0-63.863-51.77-115.631-115.631-115.631-51.626 0-96.998 34.223-111.181 83.866l-67.007 234.526c-29.69 35.029-47.514 80.333-47.514 129.609 0 106.426 83.141 194.314 189.403 200.217l128.795 7.155c62.994 3.5 124.259 21.902 178.762 53.693l100.045 58.359zM240.372 295.339l41.533-145.365c3.716-13.005 15.604-21.973 29.131-21.973 16.733 0 30.297 13.564 30.297 30.298v128.452l-66.596 3.699c-11.766 0.653-23.248 2.313-34.365 4.89zM853.333 469.334c0 23.565-19.102 42.667-42.667 42.667v-85.333c23.565 0 42.667 19.102 42.667 42.667z" />
<glyph unicode="&#xe953;" glyph-name="announcement_line" d="M810.667 736.382v-139.049c70.694 0 128-57.308 128-128 0-70.694-57.306-128-128-128v-128c0-70.319-80.277-110.46-136.533-68.267l-87.932 65.95c-47.13 35.345-101.858 58.782-159.535 68.617v-121.335c0-63.863-51.77-115.631-115.63-115.631-51.627 0-96.998 34.223-111.181 83.866l-67.007 234.522c-29.691 35.034-47.515 80.337-47.515 129.613 0 106.426 83.141 194.314 189.403 200.217l128.795 7.155c62.994 3.5 124.259 21.902 178.762 53.693l100.045 58.359c56.887 33.185 128.329-7.85 128.329-73.709zM240.372 295.339l41.533-145.365c3.716-13.005 15.604-21.973 29.131-21.973 16.733 0 30.297 13.564 30.297 30.298v128.452l-66.597 3.699c-11.765 0.653-23.247 2.313-34.364 4.89zM725.333 736.382l-100.045-58.359c-60.843-35.493-128.636-57.239-198.622-63.811v-248.247c76.262-10.513 148.826-40.252 210.735-86.682l87.932-65.95v523.049zM341.333 609.119l-61.863-3.437c-61.043-3.391-108.803-53.879-108.803-115.015 0-58.692 44.016-107.568 101.544-114.386l7.259-0.631 61.863-3.435v236.903zM810.667 512v-85.333c23.565 0 42.667 19.102 42.667 42.667 0 21.882-16.47 39.915-37.691 42.38l-4.976 0.287z" />
<glyph unicode="&#xe954;" glyph-name="anticlockwise_alt_fill" d="M853.333 597.332c44.987 0 81.842-34.811 85.099-78.964l0.234-6.368v-384c0-44.987-34.81-81.842-78.965-85.099l-6.369-0.234h-426.667c-44.986 0-81.842 34.81-85.099 78.965l-0.234 6.369v384c0 44.985 34.811 81.84 78.965 85.098l6.369 0.234h426.667zM466.765 782.591c8.051-22.145-3.371-46.626-25.519-54.679-80.14-29.142-139.114-87.134-181.839-150.013-42.74-62.902-67.594-128.375-80.008-167.914-9.845-31.36-40.441-34.176-52.603-32.457-12.094 1.711-41.463 13.141-41.463 46.754v215.728c0 23.564 19.103 42.667 42.667 42.667s42.667-19.103 42.667-42.667v-42.467c5.703 9.421 11.75 18.882 18.159 28.314 49.091 72.248 120.975 145.056 223.261 182.251 22.146 8.053 46.628-3.372 54.679-25.517z" />
<glyph unicode="&#xe955;" glyph-name="anticlockwise_alt_line" d="M853.333 597.334c44.987 0 81.842-34.811 85.099-78.965l0.234-6.369v-384c0-44.988-34.81-81.842-78.965-85.099l-6.369-0.234h-426.667c-44.986 0-81.842 34.809-85.099 78.965l-0.234 6.369v384c0 44.986 34.811 81.842 78.965 85.099l6.369 0.234h426.667zM853.333 512.001h-426.667v-384h426.667v384zM466.765 782.591c8.051-22.145-3.371-46.626-25.519-54.679-80.14-29.142-139.114-87.134-181.839-150.013-42.74-62.902-67.594-128.375-80.008-167.914-9.845-31.36-40.441-34.176-52.603-32.457-12.094 1.711-41.463 13.141-41.463 46.754v215.728c0 23.564 19.103 42.667 42.667 42.667s42.667-19.103 42.667-42.667v-42.467c5.703 9.421 11.75 18.882 18.159 28.314 49.091 72.248 120.975 145.056 223.261 182.251 22.146 8.053 46.628-3.372 54.679-25.517z" />
<glyph unicode="&#xe956;" glyph-name="anticlockwise_fill" d="M597.333 597.334c44.987 0 81.842-34.811 85.099-78.965l0.234-6.369v-384c0-44.987-34.81-81.842-78.965-85.099l-6.369-0.234h-426.667c-44.986 0-81.842 34.81-85.099 78.965l-0.234 6.369v384c0 44.986 34.811 81.842 78.965 85.099l6.369 0.234h426.667zM768 810.667c23.565 0 42.667-19.103 42.667-42.667s-19.102-42.667-42.667-42.667h-42.466c9.421-5.703 18.88-11.75 28.314-18.159 72.247-49.091 145.054-120.975 182.251-223.262 8.051-22.144-3.371-46.626-25.519-54.677-22.144-8.051-46.626 3.371-54.677 25.519-29.141 80.14-87.134 139.114-150.012 181.839-62.903 42.74-128.375 67.594-167.915 80.008-31.364 9.845-34.18 40.441-32.457 52.603 1.707 12.094 13.141 41.463 46.754 41.463h215.727z" />
<glyph unicode="&#xe957;" glyph-name="anticlockwise_line" d="M597.333 597.334c44.987 0 81.842-34.811 85.099-78.965l0.234-6.369v-384c0-44.987-34.81-81.842-78.965-85.099l-6.369-0.234h-426.667c-44.986 0-81.842 34.81-85.099 78.965l-0.234 6.369v384c0 44.986 34.811 81.842 78.965 85.099l6.369 0.234h426.667zM597.333 512h-426.667v-384h426.667v384zM768 810.667c23.565 0 42.667-19.103 42.667-42.667s-19.102-42.667-42.667-42.667h-42.466c9.421-5.703 18.88-11.75 28.314-18.159 72.247-49.091 145.054-120.975 182.251-223.262 8.051-22.144-3.371-46.626-25.519-54.677-22.144-8.051-46.626 3.371-54.677 25.519-29.141 80.14-87.134 139.114-150.012 181.839-62.903 42.74-128.375 67.594-167.915 80.008-31.364 9.845-34.18 40.441-32.457 52.603 1.707 12.094 13.141 41.463 46.754 41.463h215.727z" />
<glyph unicode="&#xe958;" glyph-name="apple_fill" d="M557.406 653.439l31.765 13.048c25.832 10.286 59.172 20.707 98.582 14.083 80.674-13.559 136.333-57.121 169.481-114.9 12.774-22.267 2.453-51.598-21.449-60.961-39.757-15.569-67.789-54.251-67.789-99.371 0-47.262 30.771-87.454 73.485-101.414 22.114-7.232 34.539-31.778 27.277-53.879-18.833-57.289-45.99-110.148-78.123-152.815-31.718-42.125-70.464-77.154-113.6-94.229-28.127-11.133-58.357-6.976-87.265 0.196l-17.158 4.567-25.465 7.399c-11.56 3.341-23.426 6.248-35.15 6.248s-23.59-2.907-35.149-6.248l-25.463-7.399-17.159-4.567c-28.908-7.172-59.139-11.329-87.265-0.196-54.326 21.504-102.244 71.68-138.432 130.833-36.829 60.207-64.739 134.852-76.119 212.732-9.69 66.325-4.459 140.757 26.231 203.76 31.607 64.884 89.416 115.421 177.599 130.246 35.831 6.023 66.643-2.042 91.357-11.287l14.088-5.585 24.906-10.259c17.054-6.682 30.539-10.617 45.406-10.617 14.87 0 28.356 3.935 45.41 10.618zM502.089 820.58c41.655 41.656 105.596 45.255 120.678 30.17 15.087-15.085 11.486-79.023-30.17-120.679s-105.596-45.255-120.678-30.17c-15.087 15.085-11.486 79.024 30.17 120.68z" />
<glyph unicode="&#xe959;" glyph-name="apple_line" d="M557.406 653.439l31.765 13.048c25.832 10.286 59.172 20.707 98.582 14.083 80.674-13.559 136.333-57.121 169.481-114.9 12.774-22.267 2.453-51.598-21.449-60.961-39.757-15.569-67.789-54.251-67.789-99.371 0-47.262 30.771-87.454 73.485-101.414 22.114-7.232 34.539-31.778 27.277-53.879-18.833-57.289-45.99-110.148-78.123-152.815-31.718-42.125-70.464-77.154-113.6-94.229-28.688-11.356-59.346-6.87-88.675 0.537l-17.412 4.691-24.937 6.95-13.611 3.385c-8.23 1.847-14.86 2.849-20.404 2.849s-12.174-1.002-20.404-2.849l-13.611-3.385-33.592-9.346c-31.932-8.649-65.873-15.323-97.429-2.832-54.326 21.504-102.244 71.68-138.432 130.833-36.829 60.207-64.739 134.852-76.119 212.732-9.69 66.325-4.459 140.757 26.231 203.76 31.607 64.884 89.416 115.421 177.599 130.246 35.831 6.023 66.643-2.042 91.357-11.287l14.088-5.585 24.906-10.259c17.054-6.682 30.539-10.617 45.406-10.617 14.87 0 28.356 3.935 45.41 10.618zM434.761 574.214l-14.821 6.084c-31.211 13.076-48.588 19.644-69.554 16.119-59.416-9.988-94.779-41.891-115.030-83.463-21.168-43.454-26.48-99.497-18.509-154.051 9.708-66.445 33.644-130.142 64.475-180.54 31.473-51.447 67.029-84.139 97.044-96.021 10.245-4.055 24.973-0.865 38.597 3.324l18.907 6.252c1.853 0.604 3.599 1.15 5.21 1.607l18.49 5.085c16.447 4.264 35.043 8.133 52.427 8.133s35.98-3.868 52.427-8.133l18.49-5.085 5.21-1.607 18.908-6.252c13.624-4.189 28.352-7.379 38.598-3.324 23.322 9.233 50.496 31.232 76.843 66.219 19.593 26.018 37.542 57.681 52.143 92.885-55.121 33.715-91.951 94.468-91.951 163.891 0 61.713 29.107 116.568 74.274 151.673-20.194 19.235-47.249 33.342-83.328 39.407-18.87 3.171-34.833-1.831-60.586-12.396l-8.964-3.724c-23.074-9.666-54.447-22.81-92.062-22.81-30.092 0-56.189 8.412-77.235 16.726v0zM502.097 820.58c41.655 41.656 105.596 45.255 120.678 30.17 15.087-15.085 11.486-79.023-30.17-120.679s-105.596-45.255-120.678-30.17c-15.087 15.085-11.486 79.024 30.17 120.68z" />
<glyph unicode="&#xe95a;" glyph-name="appstore_fill" d="M512 853.334c235.639 0 426.667-191.025 426.667-426.667 0-235.639-191.027-426.667-426.667-426.667-235.642 0-426.667 191.027-426.667 426.667 0 235.642 191.025 426.667 426.667 426.667zM533.333 383.996h-264.534c-23.564 0-42.667-19.102-42.667-42.667 0-23.561 19.102-42.667 42.667-42.667h21.924l-12.218-21.815c-11.514-20.561-4.18-46.562 16.38-58.074 20.56-11.516 46.56-4.181 58.074 16.38l35.566 63.509h144.807c23.565 0 42.667 19.106 42.667 42.667 0 23.565-19.102 42.667-42.667 42.667zM614.080 511.51c-11.516 20.562-37.513 27.895-58.074 16.382-19.092-10.691-26.78-33.874-18.561-53.594l2.181-4.482 131.413-234.667c11.511-20.557 37.513-27.891 58.074-16.38 19.092 10.693 26.777 33.876 18.56 53.593l-2.18 4.481-12.22 21.82h21.926c23.565 0 42.667 19.106 42.667 42.667 0 21.882-16.47 39.915-37.691 42.38l-4.976 0.287h-69.713l-71.407 127.514zM506.56 703.509c-11.511 20.56-37.513 27.893-58.074 16.38-19.092-10.691-26.778-33.874-18.561-53.592l2.181-4.482 30.993-55.342-77.074-137.631c-11.514-20.557-4.18-46.558 16.38-58.074 19.091-10.689 42.872-5.129 55.392 12.179l2.682 4.201 131.413 234.668c11.511 20.56 4.181 46.56-16.38 58.074-19.092 10.691-42.875 5.132-55.392-12.179l-2.681-4.201-5.44-9.714-5.44 9.712z" />
<glyph unicode="&#xe95b;" glyph-name="appstore_line" d="M512 853.334c235.639 0 426.667-191.025 426.667-426.667 0-235.639-191.027-426.667-426.667-426.667-235.642 0-426.667 191.027-426.667 426.667 0 235.642 191.025 426.667 426.667 426.667zM512 768c-188.513 0-341.333-152.82-341.333-341.333s152.82-341.333 341.333-341.333c188.514 0 341.333 152.819 341.333 341.333s-152.819 341.333-341.333 341.333zM533.338 383.992c23.561 0 42.667-19.102 42.667-42.667 0-21.882-16.474-39.915-37.691-42.38l-4.975-0.287h-144.809l-35.567-63.509c-11.514-20.561-37.514-27.895-58.074-16.38-19.091 10.689-26.778 33.872-18.561 53.592l2.181 4.482 12.218 21.815h-21.924c-23.564 0-42.667 19.102-42.667 42.667 0 21.882 16.471 39.915 37.691 42.38l4.976 0.287h264.535zM614.084 511.505l71.407-127.514h69.709c23.565 0 42.667-19.102 42.667-42.667s-19.102-42.667-42.667-42.667h-21.922l12.22-21.82c11.511-20.557 4.177-46.558-16.38-58.074-20.561-11.511-46.562-4.181-58.078 16.38l-131.413 234.667c-11.511 20.561-4.177 46.561 16.38 58.075 20.561 11.513 46.562 4.18 58.078-16.381zM506.564 703.504l5.436-9.712 5.44 9.714c11.516 20.56 37.517 27.894 58.074 16.38 20.561-11.514 27.895-37.514 16.384-58.074l-131.413-234.668c-11.516-20.561-37.516-27.891-58.076-16.38-20.56 11.516-27.893 37.517-16.38 58.074l77.071 137.63-30.989 55.342c-11.515 20.56-4.181 46.56 16.38 58.074 20.557 11.514 46.558 4.18 58.074-16.38z" />
<glyph unicode="&#xe95c;" glyph-name="archive_fill" d="M316.34 810.667c-22.632 0-44.337-8.99-60.34-24.994l-103.006-103.006c-11.771-11.771-19.748-26.627-23.144-42.667h764.298c-3.392 16.040-11.371 30.896-23.142 42.667l-103.006 103.006c-16.004 16.003-37.709 24.994-60.339 24.994h-391.321zM896 554.667h-768v-426.667c0-47.13 38.205-85.333 85.333-85.333h597.333c47.13 0 85.333 38.204 85.333 85.333v426.667zM512 469.334c23.565 0 42.667-19.102 42.667-42.667v-135.927l17.673 17.677c16.661 16.661 43.678 16.661 60.339 0 16.666-16.666 16.666-43.678 0-60.343l-90.509-90.509c-16.661-16.661-43.678-16.661-60.339 0l-90.51 90.509c-16.662 16.666-16.662 43.678 0 60.343 16.663 16.661 43.679 16.661 60.34 0l17.673-17.677v135.927c0 23.565 19.102 42.667 42.667 42.667z" />
<glyph unicode="&#xe95d;" glyph-name="archive_line" d="M707.661 810.667c22.63 0 44.335-8.99 60.339-24.994l103.006-103.006c16.004-16.003 24.994-37.708 24.994-60.34v-494.327c0-47.13-38.204-85.333-85.333-85.333h-597.333c-47.128 0-85.333 38.204-85.333 85.333v494.327c0 22.632 8.99 44.337 24.994 60.34l103.006 103.006c16.003 16.003 37.708 24.994 60.34 24.994h391.321zM810.667 554.667h-597.333v-426.667h597.333v426.667zM512 512c23.565 0 42.667-19.102 42.667-42.667v-135.927l17.673 17.673c16.661 16.666 43.678 16.666 60.339 0 16.666-16.661 16.666-43.678 0-60.339l-90.509-90.509c-8-8-18.854-12.497-30.17-12.497s-22.17 4.497-30.17 12.497l-90.51 90.509c-16.662 16.661-16.662 43.678 0 60.339 16.663 16.666 43.679 16.666 60.34 0l17.673-17.673v135.927c0 23.565 19.102 42.667 42.667 42.667zM707.661 725.334h-391.321l-85.333-85.333h561.988l-85.333 85.333z" />
<glyph unicode="&#xe95e;" glyph-name="arow_to_down_fill" d="M213.333 149.334c-35.346 0-64-28.655-64-64s28.654-64 64-64h597.333c35.345 0 64 28.655 64 64s-28.655 64-64 64h-597.333zM738.266 471.727c-24.994 24.994-65.519 24.994-90.509 0l-71.753-71.748v368.021c0 35.346-28.655 64-64 64-35.349 0-64-28.654-64-64v-368.047l-71.779 71.774c-24.994 24.994-65.516 24.994-90.51 0-24.994-24.99-24.994-65.515 0-90.509l181.019-181.018c24.994-24.994 65.515-24.994 90.509 0l181.022 181.018c24.994 24.994 24.994 65.519 0 90.509z" />
<glyph unicode="&#xe95f;" glyph-name="arow_to_down_line" d="M213.333 128c-23.564 0-42.667-19.102-42.667-42.667s19.102-42.667 42.667-42.667h597.333c23.565 0 42.667 19.102 42.667 42.667s-19.102 42.667-42.667 42.667h-597.333zM723.179 456.645c-16.661 16.661-43.678 16.661-60.339 0l-108.169-108.173v419.529c0 23.564-19.106 42.667-42.667 42.667-23.565 0-42.667-19.103-42.667-42.667v-419.554l-108.197 108.198c-16.663 16.661-43.677 16.661-60.34 0s-16.662-43.678 0-60.339l181.017-181.022c16.666-16.661 43.678-16.661 60.343 0l181.018 181.022c16.661 16.661 16.661 43.678 0 60.339z" />
<glyph unicode="&#xe960;" glyph-name="arow_to_left_fill" d="M234.667 682.667c0 35.346-28.654 64-64 64s-64-28.654-64-64v-512c0-35.345 28.654-64 64-64s64 28.655 64 64v512zM557.060 200.401c24.994 24.994 24.994 65.515 0 90.509l-71.753 71.757h368.026c35.345 0 64 28.655 64 64s-28.655 64-64 64h-368.047l71.774 71.774c24.994 24.993 24.994 65.516 0 90.51s-65.515 24.993-90.509 0l-181.019-181.019c-24.993-24.994-24.993-65.515 0-90.509l181.019-181.022c24.994-24.994 65.519-24.994 90.509 0z" />
<glyph unicode="&#xe961;" glyph-name="arow_to_left_line" d="M213.333 682.667c0 23.564-19.103 42.667-42.667 42.667s-42.667-19.103-42.667-42.667v-512c0-23.565 19.103-42.667 42.667-42.667s42.667 19.102 42.667 42.667v512zM541.978 215.488c16.661 16.661 16.661 43.678 0 60.339l-108.173 108.173h419.529c23.565 0 42.667 19.102 42.667 42.667s-19.102 42.667-42.667 42.667h-419.55l108.194 108.192c16.661 16.662 16.661 43.677 0 60.34s-43.678 16.663-60.339 0l-181.021-181.021c-16.663-16.661-16.663-43.678 0-60.339l181.021-181.018c16.661-16.666 43.678-16.666 60.339 0z" />
<glyph unicode="&#xe962;" glyph-name="arow_to_right_fill" d="M789.333 128c0-35.345 28.655-64 64-64s64 28.655 64 64v597.333c0 35.346-28.655 64-64 64s-64-28.654-64-64v-597.333zM466.94 652.931c-24.994-24.993-24.994-65.516 0-90.51l71.753-71.75h-368.026c-35.346 0-64-28.655-64-64 0-35.349 28.654-64 64-64h368.051l-71.778-71.778c-24.994-24.994-24.994-65.519 0-90.509 24.994-24.994 65.515-24.994 90.509 0l181.018 181.018c24.994 24.994 24.994 65.515 0 90.509l-181.018 181.021c-24.994 24.994-65.515 24.994-90.509 0z" />
<glyph unicode="&#xe963;" glyph-name="arow_to_right_line" d="M810.667 128c0-23.565 19.102-42.667 42.667-42.667s42.667 19.102 42.667 42.667v597.333c0 23.564-19.102 42.667-42.667 42.667s-42.667-19.102-42.667-42.667v-597.333zM482.022 637.847c-16.661-16.663-16.661-43.677 0-60.34l108.173-108.169h-419.529c-23.564 0-42.667-19.106-42.667-42.667 0-23.565 19.103-42.667 42.667-42.667h419.554l-108.198-108.198c-16.661-16.661-16.661-43.678 0-60.339 16.666-16.661 43.678-16.661 60.339 0l181.022 181.018c16.661 16.666 16.661 43.678 0 60.343l-181.022 181.018c-16.661 16.662-43.678 16.662-60.339 0z" />
<glyph unicode="&#xe964;" glyph-name="arow_to_up_fill" d="M810.667 704c35.345 0 64 28.654 64 64s-28.655 64-64 64h-597.333c-35.346 0-64-28.654-64-64s28.654-64 64-64h597.333zM285.735 381.602c24.994-24.99 65.516-24.99 90.51 0l71.751 71.753v-368.021c0-35.345 28.655-64 64-64 35.349 0 64 28.655 64 64v368.047l71.778-71.774c24.994-24.994 65.515-24.994 90.509 0 24.994 24.99 24.994 65.515 0 90.509l-181.018 181.018c-24.994 24.994-65.515 24.994-90.509 0l-181.021-181.018c-24.993-24.994-24.993-65.519 0-90.513z" />
<glyph unicode="&#xe965;" glyph-name="arow_to_up_line" d="M810.667 725.334c23.565 0 42.667 19.102 42.667 42.667s-19.102 42.667-42.667 42.667h-597.333c-23.564 0-42.667-19.102-42.667-42.667s19.102-42.667 42.667-42.667h597.333zM300.82 396.689c16.662-16.661 43.677-16.661 60.34 0l108.173 108.173-0.004-419.529c0-23.565 19.106-42.667 42.667-42.667 23.565 0 42.667 19.102 42.667 42.667l0.004 419.55 108.194-108.194c16.661-16.661 43.678-16.661 60.339 0s16.661 43.678 0 60.339l-181.022 181.021c-16.661 16.662-43.674 16.662-60.339 0l-181.018-181.021c-16.662-16.661-16.662-43.678 0-60.339z" />
<glyph unicode="&#xe966;" glyph-name="arrow_down_circle_fill" d="M512 853.334c235.639 0 426.667-191.025 426.667-426.667 0-235.639-191.027-426.667-426.667-426.667-235.642 0-426.667 191.027-426.667 426.667 0 235.642 191.025 426.667 426.667 426.667zM693.009 426.475c-16.666 16.661-43.678 16.661-60.339 0l-78.003-78.003v259.216c0 23.564-19.102 42.667-42.667 42.667s-42.667-19.102-42.667-42.667v-259.238l-78.025 78.025c-16.662 16.661-43.677 16.661-60.34 0s-16.662-43.678 0-60.339l150.849-150.852c16.661-16.661 43.678-16.661 60.339 0l150.852 150.852c16.661 16.661 16.661 43.678 0 60.339z" />
<glyph unicode="&#xe967;" glyph-name="arrow_down_circle_line" d="M512 853.334c235.639 0 426.667-191.025 426.667-426.667 0-235.639-191.027-426.667-426.667-426.667-235.642 0-426.667 191.027-426.667 426.667 0 235.642 191.025 426.667 426.667 426.667zM512 768c-188.513 0-341.333-152.82-341.333-341.333s152.82-341.333 341.333-341.333c188.514 0 341.333 152.819 341.333 341.333s-152.819 341.333-341.333 341.333zM512.004 650.355c21.878 0 39.914-16.471 42.38-37.691l0.287-4.976v-259.216l77.999 78.003c16.661 16.661 43.678 16.661 60.339 0 15.38-15.38 16.563-39.583 3.549-56.32l-3.549-4.019-150.848-150.852c-15.384-15.38-39.583-16.563-56.32-3.549l-4.019 3.549-150.851 150.852c-16.663 16.661-16.663 43.678 0 60.339 15.38 15.38 39.583 16.563 56.32 3.549l4.019-3.549 78.028-78.025v259.238c0 23.564 19.102 42.667 42.667 42.667z" />
<glyph unicode="&#xe968;" glyph-name="arrow_down_fill" d="M448 254.49l-132.105 132.105c-24.994 24.994-65.516 24.994-90.51 0s-24.994-65.519 0-90.509l241.358-241.361c24.994-24.994 65.519-24.994 90.513 0l241.357 241.361c24.994 24.99 24.994 65.515 0 90.509s-65.515 24.994-90.509 0l-132.105-132.105v492.177c0 35.346-28.655 64-64 64s-64-28.654-64-64v-492.177z" />
<glyph unicode="&#xe969;" glyph-name="arrow_down_line" d="M469.333 202.983l-168.523 168.521c-16.663 16.666-43.677 16.666-60.34 0-16.662-16.661-16.662-43.678 0-60.339l241.36-241.357c16.661-16.666 43.678-16.666 60.339 0l241.361 241.357c16.661 16.661 16.661 43.678 0 60.339-16.666 16.666-43.678 16.666-60.343 0l-168.521-168.521v565.018c0 23.564-19.102 42.667-42.667 42.667s-42.667-19.103-42.667-42.667v-565.018z" />
<glyph unicode="&#xe96a;" glyph-name="arrow_left_circle_fill" d="M512-0c-235.642 0-426.667 191.027-426.667 426.667 0 235.642 191.025 426.667 426.667 426.667 235.639 0 426.667-191.025 426.667-426.667 0-235.639-191.027-426.667-426.667-426.667zM511.808 245.658c16.661 16.661 16.661 43.678 0 60.339l-78.003 77.999h259.217c23.565 0 42.667 19.106 42.667 42.667 0 23.565-19.102 42.667-42.667 42.667h-259.238l78.025 78.028c16.661 16.662 16.661 43.677 0 60.34s-43.678 16.663-60.339 0l-150.851-150.847c-16.662-16.666-16.662-43.678 0-60.343l150.851-150.848c16.661-16.661 43.678-16.661 60.339 0z" />
<glyph unicode="&#xe96b;" glyph-name="arrow_left_circle_line" d="M512 853.334c235.639 0 426.667-191.025 426.667-426.667 0-235.639-191.027-426.667-426.667-426.667-235.642 0-426.667 191.027-426.667 426.667 0 235.642 191.025 426.667 426.667 426.667zM512 768c-188.513 0-341.333-152.82-341.333-341.333s152.82-341.333 341.333-341.333c188.514 0 341.333 152.819 341.333 341.333s-152.819 341.333-341.333 341.333zM451.469 607.697c16.661 16.663 43.678 16.663 60.339 0 15.38-15.38 16.563-39.583 3.549-56.32l-3.549-4.019-78.025-78.028h259.238c23.565 0 42.667-19.102 42.667-42.667 0-21.878-16.47-39.914-37.691-42.38l-4.976-0.287h-259.217l78.003-77.999c16.661-16.661 16.661-43.678 0-60.339-15.38-15.38-39.583-16.563-56.32-3.549l-4.019 3.549-150.851 150.848c-15.38 15.384-16.564 39.583-3.549 56.323l3.549 4.020 150.851 150.847z" />
<glyph unicode="&#xe96c;" glyph-name="arrow_left_down_circle_fill" d="M512-0c-235.642 0-426.667 191.027-426.667 426.667 0 235.642 191.025 426.667 426.667 426.667 235.639 0 426.667-191.025 426.667-426.667 0-235.639-191.027-426.667-426.667-426.667zM639.859 298.535c0 23.565-19.106 42.667-42.667 42.667h-110.31l183.292 183.294c16.661 16.662 16.661 43.677 0 60.34s-43.678 16.663-60.339 0l-183.311-183.312v110.345c0 23.566-19.103 42.669-42.667 42.669s-42.667-19.103-42.667-42.669v-213.333c0-23.561 19.103-42.667 42.667-42.667h213.336c23.561 0 42.667 19.106 42.667 42.667z" />
<glyph unicode="&#xe96d;" glyph-name="arrow_left_down_circle_line" d="M512 853.334c235.639 0 426.667-191.025 426.667-426.667 0-235.639-191.027-426.667-426.667-426.667-235.642 0-426.667 191.027-426.667 426.667 0 235.642 191.025 426.667 426.667 426.667zM512 768c-188.513 0-341.333-152.82-341.333-341.333s152.82-341.333 341.333-341.333c188.514 0 341.333 152.819 341.333 341.333s-152.819 341.333-341.333 341.333zM609.83 584.84c16.661 16.663 43.678 16.663 60.339 0 15.384-15.38 16.567-39.583 3.55-56.32l-3.55-4.019-183.292-183.291h110.31c23.565 0 42.667-19.102 42.667-42.667 0-21.882-16.47-39.915-37.691-42.38l-4.976-0.287h-213.334c-21.881 0-39.915 16.47-42.38 37.691l-0.287 4.976v213.333c0 23.563 19.103 42.665 42.667 42.665 21.881 0 39.915-16.471 42.38-37.69l0.287-4.976v-110.345l183.31 183.308z" />
<glyph unicode="&#xe96e;" glyph-name="arrow_left_down_fill" d="M345 350.17v186.824c0 35.346-28.654 64-64 64s-64-28.654-64-64v-341.333c0-35.345 28.654-64 64-64h341.332c35.349 0 64 28.655 64 64s-28.651 64-64 64h-186.82l348.019 348.022c24.994 24.994 24.994 65.516 0 90.51s-65.515 24.994-90.509 0l-348.022-348.023z" />
<glyph unicode="&#xe96f;" glyph-name="arrow_left_down_line" d="M359.011 213.329l424.52 424.522c16.661 16.663 16.661 43.677 0 60.34s-43.678 16.662-60.339 0l-424.525-424.523v238.327c0 23.566-19.103 42.668-42.667 42.668s-42.667-19.103-42.667-42.668v-341.333c0-23.561 19.103-42.667 42.667-42.667h341.333c23.565 0 42.667 19.106 42.667 42.667 0 23.565-19.102 42.667-42.667 42.667h-238.323z" />
<glyph unicode="&#xe970;" glyph-name="arrow_left_fill" d="M140.058 471.915c-24.993-24.99-24.993-65.515 0-90.509l241.359-241.357c24.993-24.994 65.516-24.994 90.511 0s24.994 65.515 0 90.509l-132.105 132.105h492.178c35.345 0 64 28.655 64 64s-28.655 64-64 64h-492.178l132.105 132.104c24.994 24.993 24.994 65.516 0 90.51s-65.517 24.993-90.511 0l-241.359-241.361z" />
<glyph unicode="&#xe971;" glyph-name="arrow_left_line" d="M155.137 456.832c-16.662-16.661-16.662-43.678 0-60.339l241.359-241.361c16.662-16.661 43.678-16.661 60.34 0s16.661 43.678 0 60.339l-168.523 168.525h565.020c23.565 0 42.667 19.102 42.667 42.667s-19.102 42.667-42.667 42.667h-565.020l168.523 168.522c16.661 16.663 16.661 43.677 0 60.34s-43.677 16.663-60.34 0l-241.359-241.359z" />
<glyph unicode="&#xe972;" glyph-name="arrow_left_up_circle_fill" d="M512-0c-235.642 0-426.667 191.027-426.667 426.667 0 235.642 191.025 426.667 426.667 426.667 235.639 0 426.667-191.025 426.667-426.667 0-235.639-191.027-426.667-426.667-426.667zM383.871 298.812c23.564 0 42.667 19.102 42.667 42.667v110.31l183.293-183.292c16.661-16.666 43.678-16.666 60.339 0 16.661 16.661 16.661 43.678 0 60.339l-183.309 183.31h110.345c23.565 0 42.667 19.102 42.667 42.667s-19.102 42.667-42.667 42.667h-213.334c-23.564 0-42.667-19.103-42.667-42.667v-213.334c0-23.565 19.102-42.667 42.667-42.667z" />
<glyph unicode="&#xe973;" glyph-name="arrow_left_up_circle_line" d="M512 853.334c235.639 0 426.667-191.025 426.667-426.667 0-235.639-191.027-426.667-426.667-426.667-235.642 0-426.667 191.027-426.667 426.667 0 235.642 191.025 426.667 426.667 426.667zM512 768c-188.513 0-341.333-152.82-341.333-341.333s152.82-341.333 341.333-341.333c188.514 0 341.333 152.819 341.333 341.333s-152.819 341.333-341.333 341.333zM597.21 597.48c23.565 0 42.667-19.103 42.667-42.667 0-21.881-16.47-39.915-37.691-42.38l-4.976-0.287h-110.345l183.309-183.31c16.661-16.661 16.661-43.678 0-60.339-15.38-15.384-39.583-16.567-56.32-3.55l-4.019 3.55-183.293 183.292v-110.31c0-23.565-19.103-42.667-42.667-42.667-21.881 0-39.915 16.47-42.38 37.691l-0.287 4.976v213.334c0 21.881 16.471 39.915 37.691 42.38l4.976 0.287h213.335z" />
<glyph unicode="&#xe974;" glyph-name="arrow_left_up_fill" d="M192 682.667c0 35.346 28.654 64 64 64h341.333c35.345 0 64-28.654 64-64s-28.655-64-64-64h-186.834l388.118-388.117c24.99-24.994 24.99-65.515 0-90.509-24.994-24.994-65.519-24.994-90.513 0l-388.105 388.106v-186.813c0-35.345-28.654-64-64-64s-64 28.655-64 64v341.333z" />
<glyph unicode="&#xe975;" glyph-name="arrow_left_up_line" d="M213.333 682.667c0 23.564 19.103 42.667 42.667 42.667h341.333c23.565 0 42.667-19.103 42.667-42.667s-19.102-42.667-42.667-42.667h-238.337l424.535-424.533c16.661-16.666 16.661-43.678 0-60.343-16.661-16.661-43.678-16.661-60.339 0l-424.525 424.527v-238.316c0-23.565-19.103-42.667-42.667-42.667s-42.667 19.102-42.667 42.667v341.333z" />
<glyph unicode="&#xe976;" glyph-name="arrow_right_circle_fill" d="M512-0c-235.642 0-426.667 191.027-426.667 426.667 0 235.642 191.025 426.667 426.667 426.667 235.639 0 426.667-191.025 426.667-426.667 0-235.639-191.027-426.667-426.667-426.667zM512.192 607.676c-16.661-16.662-16.661-43.677 0-60.34l78.003-77.999h-259.216c-23.564 0-42.667-19.106-42.667-42.667 0-23.565 19.102-42.667 42.667-42.667h259.238l-78.025-78.029c-16.661-16.661-16.661-43.678 0-60.339s43.678-16.661 60.339 0l150.852 150.848c16.661 16.666 16.661 43.678 0 60.343l-150.852 150.848c-16.661 16.663-43.678 16.663-60.339 0z" />
<glyph unicode="&#xe977;" glyph-name="arrow_right_circle_line" d="M512 853.334c235.639 0 426.667-191.025 426.667-426.667 0-235.639-191.027-426.667-426.667-426.667-235.642 0-426.667 191.027-426.667 426.667 0 235.642 191.025 426.667 426.667 426.667zM512 768c-188.513 0-341.333-152.82-341.333-341.333s152.82-341.333 341.333-341.333c188.514 0 341.333 152.819 341.333 341.333s-152.819 341.333-341.333 341.333zM512.192 607.676c15.38 15.381 39.583 16.564 56.32 3.549l4.019-3.549 150.852-150.848c15.38-15.384 16.563-39.583 3.549-56.32l-3.549-4.019-150.852-150.852c-16.661-16.661-43.678-16.661-60.339 0-15.38 15.38-16.563 39.583-3.549 56.32l3.549 4.019 78.025 78.029h-259.238c-23.564 0-42.667 19.102-42.667 42.667 0 21.878 16.471 39.914 37.691 42.38l4.976 0.287h259.216l-78.003 77.999c-16.661 16.662-16.661 43.677 0 60.34z" />
<glyph unicode="&#xe978;" glyph-name="arrow_right_down_circle_fill" d="M512-0c-235.642 0-426.667 191.027-426.667 426.667 0 235.642 191.025 426.667 426.667 426.667 235.639 0 426.667-191.025 426.667-426.667 0-235.639-191.027-426.667-426.667-426.667zM640.128 554.522c-23.565 0-42.667-19.103-42.667-42.667v-110.31l-183.291 183.293c-16.662 16.662-43.677 16.662-60.34 0s-16.663-43.677 0-60.34l183.309-183.309h-110.345c-23.563 0-42.666-19.102-42.666-42.667s19.103-42.667 42.666-42.667h213.333c23.565 0 42.667 19.102 42.667 42.667v213.333c0 23.564-19.102 42.667-42.667 42.667z" />
<glyph unicode="&#xe979;" glyph-name="arrow_right_down_circle_line" d="M512 853.334c235.639 0 426.667-191.025 426.667-426.667 0-235.639-191.027-426.667-426.667-426.667-235.642 0-426.667 191.027-426.667 426.667 0 235.642 191.025 426.667 426.667 426.667zM512 768c-188.513 0-341.333-152.82-341.333-341.333s152.82-341.333 341.333-341.333c188.514 0 341.333 152.819 341.333 341.333s-152.819 341.333-341.333 341.333zM353.827 584.838c15.38 15.38 39.583 16.564 56.32 3.549l4.019-3.549 183.291-183.293v110.31c0 23.564 19.102 42.667 42.667 42.667 21.882 0 39.915-16.471 42.38-37.691l0.287-4.976v-213.333c0-21.882-16.47-39.915-37.691-42.38l-4.976-0.287h-213.333c-23.563 0-42.665 19.102-42.665 42.667 0 21.882 16.471 39.915 37.69 42.38l4.976 0.287h110.345l-183.308 183.309c-16.663 16.663-16.663 43.677 0 60.34z" />
<glyph unicode="&#xe97a;" glyph-name="arrow_right_down_fill" d="M831.996 170.658c0-35.345-28.655-64-64-64h-341.333c-35.346 0-64 28.655-64 64 0 35.349 28.654 64 64 64h186.833l-388.115 388.118c-24.994 24.994-24.994 65.516 0 90.51s65.516 24.994 90.51 0l388.105-388.106v186.812c0 35.348 28.655 64.002 64 64.002s64-28.654 64-64.002v-341.333z" />
<glyph unicode="&#xe97b;" glyph-name="arrow_right_down_line" d="M725.329 273.686v238.318c0 23.564 19.102 42.667 42.667 42.667s42.667-19.103 42.667-42.667v-341.332c0-23.565-19.102-42.667-42.667-42.667h-341.332c-23.564 0-42.667 19.102-42.667 42.667s19.102 42.667 42.667 42.667h238.335l-424.533 424.534c-16.662 16.662-16.662 43.677 0 60.34s43.677 16.663 60.34 0l424.524-424.526z" />
<glyph unicode="&#xe97c;" glyph-name="arrow_right_fill" d="M642.586 713.276l241.357-241.361c24.994-24.99 24.994-65.515 0-90.509l-241.357-241.357c-24.994-24.994-65.519-24.994-90.513 0-24.99 24.994-24.99 65.515 0 90.509l132.105 132.105h-492.177c-35.346 0-64 28.655-64 64s28.654 64 64 64h492.177l-132.105 132.104c-24.99 24.993-24.99 65.516 0 90.51 24.994 24.993 65.519 24.993 90.513 0z" />
</font>
</defs>
</svg>
